(Orchestral) Arvo Part - Symphonies Nos.1-3 | Perpetuum mobile | Cello concerto “Pro et contra” (F.Helmerson • Bamberger Symphoniker - N.Jarvi) - 1989, FLAC (image+.cue) lossless


 

[Цитировать]

ARVO PÄRT
Cello concerto • Symphonies Nos.1-3 • Perpetuum mobile
Bamberger Symphoniker - NEEME JÄRVI
- Жанр: Orchestral
Страна-производитель диска: Austria
Год издания диска: 1989
Издатель (лейбл): BIS
Дата записи: 01.1989
Аудиокодек: FLAC
Тип рипа: image+.cue
Битрейт аудио: lossless
Продолжительность: 64'56''
Источник: собственный рип
Наличие сканов в содержимом раздачи: да
Треклист:
[01] Cello concerto “Pro et contra”: I. Maestoso
[02] II. Largo
[03] III. Allegro
[04] Perpetuum Mobile, op.10
[05] Symphony No.1 (Polyphonic): I. Canons
[06] II. Prelude and Fugue
[07] Symphony No.2: I. First Movement
[08] II. Second Movement
[09] III. Third Movement
[10] Symphony No.3: I. First Movement
[11] II. Second Movement
[12] III. Third Movement
Исполнители:
Frans Helmerson - cello
Bamberger Symphoniker - Neeme Järvi
-

Лог создания рипа

Exact Audio Copy V1.0 beta 4 from 7. December 2014
EAC extraction logfile from 28. September 2015, 0:31
Bamberger Symphoniker - Neeme Järvi / Arvo Pärt - Symphonies 1-3
Used drive : PHILIPS PCRW804 Adapter: 1 ID: 1
Read mode : Secure
Utilize accurate stream : Yes
Defeat audio cache : Yes
Make use of C2 pointers : No
Read offset correction : -436
Overread into Lead-In and Lead-Out : No
Fill up missing offset samples with silence : Yes
Delete leading and trailing silent blocks : No
Null samples used in CRC calculations : Yes
Used interface : Native Win32 interface for Win NT & 2000
Used output format : User Defined Encoder
Selected bitrate : 1024 kBit/s
Quality : High
Add ID3 tag : No
Command line compressor : C:\Program Files (x86)\FLAC\flac.exe
Additional command line options : -T "COMMENT=rip by el coronel" -8 -V %source%
TOC of the extracted CD
Track | Start | Length | Start sector | End sector
---------------------------------------------------------
1 | 0:00.00 | 5:04.32 | 0 | 22831
2 | 5:04.32 | 0:32.18 | 22832 | 25249
3 | 5:36.50 | 3:23.25 | 25250 | 40499
4 | 9:00.00 | 4:20.00 | 40500 | 59999
5 | 13:20.00 | 9:50.00 | 60000 | 104249
6 | 23:10.00 | 6:34.00 | 104250 | 133799
7 | 29:44.00 | 5:24.00 | 133800 | 158099
8 | 35:08.00 | 2:27.00 | 158100 | 169124
9 | 37:35.00 | 6:07.00 | 169125 | 196649
10 | 43:42.00 | 6:19.00 | 196650 | 225074
11 | 50:01.00 | 6:24.00 | 225075 | 253874
12 | 56:25.00 | 8:31.00 | 253875 | 292199
Range status and errors
Selected range
Filename F:\Music\Part - Symphonies 1-3 (Bamberger Symphoniker - Jarvi)\CD.wav
Peak level 100.0 %
Extraction speed 2.0 X
Range quality 99.9 %
Test CRC 5BECF933
Copy CRC 5BECF933
Copy OK
No errors occurred
AccurateRip summary
Track 1 cannot be verified as accurate (confidence 24) [1F206462], AccurateRip returned [208831F7] (AR v2)
Track 2 cannot be verified as accurate (confidence 24) [874B62CD], AccurateRip returned [146E6181] (AR v2)
Track 3 cannot be verified as accurate (confidence 25) [8D6B51E0], AccurateRip returned [521CB6C9] (AR v2)
Track 4 cannot be verified as accurate (confidence 24) [BEBD076F], AccurateRip returned [5F048D0C] (AR v2)
Track 5 cannot be verified as accurate (confidence 25) [3EDDDF74], AccurateRip returned [0E33DAC8] (AR v2)
Track 6 cannot be verified as accurate (confidence 25) [A9166037], AccurateRip returned [D52E9316] (AR v2)
Track 7 cannot be verified as accurate (confidence 23) [E7BFF055], AccurateRip returned [C2F132C9] (AR v2)
Track 8 cannot be verified as accurate (confidence 24) [6F837774], AccurateRip returned [363049E4] (AR v2)
Track 9 cannot be verified as accurate (confidence 23) [C85A9BC4], AccurateRip returned [5F0D9B65] (AR v2)
Track 10 cannot be verified as accurate (confidence 25) [7AE10310], AccurateRip returned [CA0D329F] (AR v2)
Track 11 cannot be verified as accurate (confidence 25) [AE657872], AccurateRip returned [E35706E5] (AR v2)
Track 12 cannot be verified as accurate (confidence 25) [68D3FD27], AccurateRip returned [8B0D7DBD] (AR v2)
No tracks could be verified as accurate
You may have a different pressing from the one(s) in the database
End of status report
---- CUETools DB Plugin V2.1.4
[CTDB TOCID: WLE0JbYseQ50ZqsJoaMDuXkJoxc-] found
Submit result: WLE0JbYseQ50ZqsJoaMDuXkJoxc- has been confirmed
Track | CTDB Status
1 | (23/26) Accurately ripped
2 | (23/26) Accurately ripped
3 | (23/26) Accurately ripped
4 | (23/26) Accurately ripped
5 | (23/26) Accurately ripped
6 | (23/26) Accurately ripped
7 | (23/26) Accurately ripped
8 | (23/26) Accurately ripped
9 | (23/26) Accurately ripped
10 | (23/26) Accurately ripped
11 | (23/26) Accurately ripped
12 | (24/26) Accurately ripped
==== Log checksum 6008E8943AC7E5BA5906EBCFEF8951E20065F4435BBFEBDD25B14991143E62F5 ====

Содержание индексной карты (.CUE)

REM GENRE Avantgarde
REM DATE 1989
REM DISCID 900F380C
REM COMMENT "ExactAudioCopy v1.0b4"
CATALOG 7318590004340
PERFORMER "Bamberger Symphoniker - Neeme Jarvi"
TITLE "Arvo Part - Symphonies 1-3"
FILE "CD.flac" WAVE
TRACK 01 AUDIO
TITLE "Concerto for Violoncello and Orchestra 'Pro et contra': I. Maestoso"
PERFORMER "F.Helmerson; Bamberger Symphoniker - Neeme Jarvi"
FLAGS PRE
INDEX 01 00:00:00
TRACK 02 AUDIO
TITLE "II. Largo"
PERFORMER "F.Helmerson; Bamberger Symphoniker - Neeme Jarvi"
FLAGS PRE
INDEX 01 05:04:32
TRACK 03 AUDIO
TITLE "III. Allegro"
PERFORMER "F.Helmerson; Bamberger Symphoniker - Neeme Jarvi"
FLAGS PRE
INDEX 01 05:36:50
TRACK 04 AUDIO
TITLE "Perpetuum Mobile, op.10"
PERFORMER "Bamberger Symphoniker - Neeme Jarvi"
FLAGS PRE
INDEX 01 09:00:00
TRACK 05 AUDIO
TITLE "Symphony No.1 (Polyphonic): I. Canons"
PERFORMER "Bamberger Symphoniker - Neeme Jarvi"
FLAGS PRE
INDEX 01 13:20:00
TRACK 06 AUDIO
TITLE "II. Prelude and Fugue"
PERFORMER "Bamberger Symphoniker - Neeme Jarvi"
FLAGS PRE
INDEX 01 23:10:00
TRACK 07 AUDIO
TITLE "Symphony No.2: I. First Movement"
PERFORMER "Bamberger Symphoniker - Neeme Jarvi"
FLAGS PRE
INDEX 01 29:44:00
TRACK 08 AUDIO
TITLE "II. Second Movement"
PERFORMER "Bamberger Symphoniker - Neeme Jarvi"
FLAGS PRE
INDEX 01 35:08:00
TRACK 09 AUDIO
TITLE "III. Third Movement"
PERFORMER "Bamberger Symphoniker - Neeme Jarvi"
FLAGS PRE
INDEX 01 37:35:00
TRACK 10 AUDIO
TITLE "Symphony No.3: I. First Movement"
PERFORMER "Bamberger Symphoniker - Neeme Jarvi"
FLAGS PRE
INDEX 01 43:42:00
TRACK 11 AUDIO
TITLE "II. Second Movement"
PERFORMER "Bamberger Symphoniker - Neeme Jarvi"
FLAGS PRE
INDEX 01 50:01:00
TRACK 12 AUDIO
TITLE "III. Third Movement"
PERFORMER "Bamberger Symphoniker - Neeme Jarvi"
FLAGS PRE
INDEX 01 56:25:00
-



Показать сообщения:    

Текущее время: 04-Дек 00:50

Часовой пояс: UTC + 3


Вы не можете начинать темы
Вы не можете отвечать на сообщения
Вы не можете редактировать свои сообщения
Вы не можете удалять свои сообщения
Вы не можете голосовать в опросах
Вы не можете прикреплять файлы к сообщениям
Вы не можете скачивать файлы