[TR24][SM][OF] Henri Herz - The Romantic Piano; Piano Concerto No 2 & other works, Vol66 (Howard Shelley, Tasmanian Symphony Orchestra) - 2015 (Classical)


Статистика раздачи [Обновить пиров]
Размер:  1.02 GB   |    Зарегистрирован:  8 месяцев 21 день   |    Скачан:  1 раз

Полного источника не было: 24 дня

 
   
 
 
 

[Цитировать]

Henri Herz - The Romantic Piano (Howard Shelley)
Год издания: 2015
Жанр: Classical
Издатель (лейбл): Hyperion UK / CDA68100
Продолжительность: 01:19:27
Наличие сканов: да-Контейнер: FLAC (*.flac)
Тип рипа: tracks
Разрядность: 24bit / 96kHz
Количество каналов: 2.0-Исполнители:
Tasmanian Symphony Orchestra
Howard Shelleyi - piano, conductor
Треклист:
Piano Concerto No 2 in C minor, Op 74
01. 1: Allegro moderato (09:09)
02. 2: Andantino cantabile con molt' espressione (05:32)
03. 3: Rondo: Allegro vivo (07:42)
04. Herz: Grande fantaisie militaire sur La fille du regiment, Op 163 (12:55)
05. Fantaisie et variations sur la marche d'Otello de Rossini, Op 67 (15:45)
06. Grande polonaise brillante, Op 30 (14:00)-

Динамический диапазон - DR:

foobar2000 1.3.2 / Замер динамического диапазона (DR) 1.1.1
Дата отчёта: 2015-09-28 10:18:43
--------------------------------------------------------------------------------
Анализ: Howard Shelley; Howard Shelley: Tasmanian Symphony Orchestra / Herz: Piano Concerto No 2 & other works
--------------------------------------------------------------------------------
DR Пики RMS Продолжительность трека
--------------------------------------------------------------------------------
DR15 -2.43 дБ -22.73 дБ 9:09 01-Herz: Piano Concerto No 2 in C minor, Op 74 - 1: Allegro moderato
DR14 -5.60 дБ -26.54 дБ 5:32 02-Herz: Piano Concerto No 2 in C minor, Op 74 - 2: Andantino cantabile con molt' espressione
DR15 -4.02 дБ -24.41 дБ 7:42 03-Herz: Piano Concerto No 2 in C minor, Op 74 - 3: Rondo: Allegro vivo
DR17 -0.10 дБ -22.85 дБ 12:55 04-Herz: Grande fantaisie militaire sur La fille du régiment, Op 163
DR14 -5.47 дБ -24.31 дБ 15:45 05-Herz: Fantaisie et variations sur la marche d'Otello de Rossini, Op 67
DR14 -5.42 дБ -24.80 дБ 14:00 06-Herz: Grande polonaise brillante, Op 30
--------------------------------------------------------------------------------
Количество треков: 6
Реальные значения DR: DR15
Частота: 96000 Гц
Каналов: 2
Разрядность: 24
Битрейт: 2221 кбит/с
Кодек: FLAC
================================================================================
[teatrix.ru].t22354.torrent 
Торрент: Зарегистрирован [ 2016-03-20 12:36 ] · A4AE2E80120649BDE0505AEC13D7C9BE9AB5B2B8

Скачать .torrent

Скачать

11 KB

Статус: проверено
Скачан: 1 раз
Размер: 1.02 GB
terms.php



Быстрый ответ

Имя:

      
Для отправки сообщений необходимо включить JavaScript
Показать сообщения:    

Текущее время: 11-Дек 07:07

Часовой пояс: UTC + 3


Вы можете начинать темы
Вы можете отвечать на сообщения
Вы не можете редактировать свои сообщения
Вы не можете удалять свои сообщения
Вы не можете голосовать в опросах
Вы не можете прикреплять файлы к сообщениям
Вы можете скачивать файлы