(Classical) Franz Joseph Haydn - String Quartets Op.54 & 55 (Festetics Quartet) - 2002, WavPack (image+.cue) lossless


 

[Цитировать]

Franz Joseph Haydn - String Quartets Op.54 & 55 (Festetics Quartet)
Жанр: Classical
Год издания диска: 2002
Издатель (лейбл): Arcana
Номер по каталогу: 416
Дата записи: 2001
Аудиокодек: WavPack
Тип рипа: image+.cue
Битрейт аудио: lossless
Продолжительность: 2:34:38
Источник: скачано с
сайт-источник/ник/другое: eMule
Наличие сканов в содержимом раздачи: да
Треклист:
CD1
[1]-[4] Quartet G-Dur Hob.III/58
[5]-[8] Quartet C-Dur Hob.III/57
[9]-[12] Quartet E-Dur Hob.III/59
CD2
[1]-[4] Quartet A-Dur Hob.III/60
[5]-[8] Quartet f-moll Hob.III/61
[9]-[12] Quartet B-Dur Hob.III/62
Исполнители:
Festetics String Quartet
István Kertész, violon école milanaise, XVIIIe s.
Erika Petöfi, violon Matthias Thier, Vienne 1770
Peter Ligeti, alto Matthias Albanus, Bolzano 1651
Rezsö Pertorini, violoncelle anonyme français, XVIIe s.

Лог создания рипаCD 1

Exact Audio Copy V0.99 prebeta 5 from 4. May 2009
EAC extraction logfile from 5. June 2009, 22:45
Franz Joseph Haydn / String Quartets op. 54 & 55 (Disk 1)
Used drive : HL-DT-STDVDRAM GH20NS15 Adapter: 2 ID: 1
Read mode : Secure
Utilize accurate stream : Yes
Defeat audio cache : No
Make use of C2 pointers : No
Read offset correction : 667
Overread into Lead-In and Lead-Out : No
Fill up missing offset samples with silence : Yes
Delete leading and trailing silent blocks : No
Null samples used in CRC calculations : Yes
Used interface : Installed external ASPI interface
Used output format : Internal WAV Routines
Sample format : 44.100 Hz; 16 Bit; Stereo
TOC of the extracted CD
Track | Start | Length | Start sector | End sector
---------------------------------------------------------
1 | 0:00.00 | 8:42.45 | 0 | 39194
2 | 8:42.45 | 6:06.52 | 39195 | 66696
3 | 14:49.22 | 5:30.14 | 66697 | 91460
4 | 20:19.36 | 4:12.67 | 91461 | 110427
5 | 24:32.28 | 8:36.62 | 110428 | 149189
6 | 33:09.15 | 2:53.24 | 149190 | 162188
7 | 36:02.39 | 4:35.39 | 162189 | 182852
8 | 40:38.03 | 7:35.31 | 182853 | 217008
9 | 48:13.34 | 10:15.60 | 217009 | 263193
10 | 58:29.19 | 9:02.08 | 263194 | 303851
11 | 67:31.27 | 4:31.03 | 303852 | 324179
12 | 72:02.30 | 6:56.20 | 324180 | 355399
Range status and errors
Selected range
Filename D:\Haydn - String Quartets Op.54 & 55 - Festetics\Franz Joseph Haydn - String Quartets op. 54 & 55 (Disk 1).wav
Peak level 100.0 %
Range quality 100.0 %
Copy CRC 755C4000
Copy OK
No errors occurred
AccurateRip summary
Track 1 not present in database
Track 2 not present in database
Track 3 not present in database
Track 4 not present in database
Track 5 not present in database
Track 6 not present in database
Track 7 not present in database
Track 8 not present in database
Track 9 not present in database
Track 10 not present in database
Track 11 not present in database
Track 12 not present in database
None of the tracks are present in the AccurateRip database
End of status report

CD 2

Exact Audio Copy V0.99 prebeta 5 from 4. May 2009
EAC extraction logfile from 5. June 2009, 22:52
Franz Joseph Haydn / String Quartets op. 54 & 55 (Disk 2)
Used drive : HL-DT-STDVDRAM GH20NS15 Adapter: 2 ID: 1
Read mode : Secure
Utilize accurate stream : Yes
Defeat audio cache : No
Make use of C2 pointers : No
Read offset correction : 667
Overread into Lead-In and Lead-Out : No
Fill up missing offset samples with silence : Yes
Delete leading and trailing silent blocks : No
Null samples used in CRC calculations : Yes
Used interface : Installed external ASPI interface
Used output format : Internal WAV Routines
Sample format : 44.100 Hz; 16 Bit; Stereo
TOC of the extracted CD
Track | Start | Length | Start sector | End sector
---------------------------------------------------------
1 | 0:00.00 | 6:17.01 | 0 | 28275
2 | 6:17.01 | 5:16.41 | 28276 | 52016
3 | 11:33.42 | 4:02.59 | 52017 | 70225
4 | 15:36.26 | 3:08.07 | 70226 | 84332
5 | 18:44.33 | 10:47.58 | 84333 | 132915
6 | 29:32.16 | 7:57.20 | 132916 | 168710
7 | 37:29.36 | 5:39.28 | 168711 | 194163
8 | 43:08.64 | 6:18.26 | 194164 | 222539
9 | 49:27.15 | 7:39.10 | 222540 | 256974
10 | 57:06.25 | 7:22.58 | 256975 | 290182
11 | 64:29.08 | 5:22.41 | 290183 | 314373
12 | 69:51.49 | 5:48.02 | 314374 | 340475
Range status and errors
Selected range
Filename D:\Haydn - String Quartets Op.54 & 55 - Festetics\Franz Joseph Haydn - String Quartets op. 54 & 55 (Disk 2).wav
Peak level 100.0 %
Range quality 99.9 %
Copy CRC 3C173B9D
Copy OK
No errors occurred
AccurateRip summary
Track 1 not present in database
Track 2 not present in database
Track 3 not present in database
Track 4 not present in database
Track 5 not present in database
Track 6 not present in database
Track 7 not present in database
Track 8 not present in database
Track 9 not present in database
Track 10 not present in database
Track 11 not present in database
Track 12 not present in database
None of the tracks are present in the AccurateRip database
End of status report

Содержание индексной карты (.CUE)CD 1

REM GENRE Classical
REM DATE 2002
REM DISCID 9B12820C
REM COMMENT ExactAudioCopy v0.99pb5
PERFORMER "Quatuor Festetics"
TITLE "String Quartets op. 54 & 55 (Disk 1)"
FILE "Franz Joseph Haydn - String Quartets op. 54 & 55 (Disk 1).wv" WAVE
TRACK 01 AUDIO
TITLE "Quartet G-Dur Hob.III/58 - I. Allegro con brio"
PERFORMER "Quatuor Festetics"
INDEX 01 00:00:00
TRACK 02 AUDIO
TITLE "Quartet G-Dur Hob.III/58 - II. Allegretto"
PERFORMER "Quatuor Festetics"
INDEX 01 08:42:45
TRACK 03 AUDIO
TITLE "Quartet G-Dur Hob.III/58 - III. Menuetto"
PERFORMER "Quatuor Festetics"
INDEX 01 14:49:22
TRACK 04 AUDIO
TITLE "Quartet G-Dur Hob.III/58 - IV. Finale. Presto"
PERFORMER "Quatuor Festetics"
INDEX 01 20:19:36
TRACK 05 AUDIO
TITLE "Quartet C-Dur Hob.III/57 - I. Vivace"
PERFORMER "Quatuor Festetics"
INDEX 00 24:27:28
INDEX 01 24:32:28
TRACK 06 AUDIO
TITLE "Quartet C-Dur Hob.III/57 - II. Adagio"
PERFORMER "Quatuor Festetics"
INDEX 01 33:09:15
TRACK 07 AUDIO
TITLE "Quartet C-Dur Hob.III/57 - III. Menuetto. Allegretto"
PERFORMER "Quatuor Festetics"
INDEX 01 36:02:39
TRACK 08 AUDIO
TITLE "Quartet C-Dur Hob.III/57 - IV. Finale. Adagio - Presto - Adagio"
PERFORMER "Quatuor Festetics"
INDEX 01 40:38:03
TRACK 09 AUDIO
TITLE "Quartet E-Dur Hob.III/59 - I. Allegro"
PERFORMER "Quatuor Festetics"
INDEX 00 48:06:34
INDEX 01 48:13:34
TRACK 10 AUDIO
TITLE "Quartet E-Dur Hob.III/59 - II. Largo"
PERFORMER "Quatuor Festetics"
INDEX 01 58:29:19
TRACK 11 AUDIO
TITLE "Quartet E-Dur Hob.III/59 - III. Menuetto. Allegretto"
PERFORMER "Quatuor Festetics"
INDEX 01 67:31:27
TRACK 12 AUDIO
TITLE "Quartet E-Dur Hob.III/59 - IV. Finale. Presto"
PERFORMER "Quatuor Festetics"
INDEX 01 72:02:30

CD 2

REM GENRE Classical
REM DATE 2002
REM DISCID C311BB0C
REM COMMENT ExactAudioCopy v0.99pb5
PERFORMER "Quatuor Festetics"
TITLE "String Quartets op. 54 & 55 (Disk 2)"
FILE "Franz Joseph Haydn - String Quartets op. 54 & 55 (Disk 2).wv" WAVE
TRACK 01 AUDIO
TITLE "Quartet A-Dur Hob.III/60 - I. Allegro"
PERFORMER "Quatuor Festetics"
INDEX 01 00:00:00
TRACK 02 AUDIO
TITLE "Quartet A-Dur Hob.III/60 - II. Adagio cantabile"
PERFORMER "Quatuor Festetics"
INDEX 01 06:17:01
TRACK 03 AUDIO
TITLE "Quartet A-Dur Hob.III/60 - III. Menuetto"
PERFORMER "Quatuor Festetics"
INDEX 01 11:33:42
TRACK 04 AUDIO
TITLE "Quartet A-Dur Hob.III/60 - IV. Finale. Vivace"
PERFORMER "Quatuor Festetics"
INDEX 01 15:36:26
TRACK 05 AUDIO
TITLE "Quartet f-moll Hob.III/61 - I. Andante piu tosto allegretto"
PERFORMER "Quatuor Festetics"
INDEX 00 18:36:33
INDEX 01 18:44:33
TRACK 06 AUDIO
TITLE "Quartet f-moll Hob.III/61 - II. Allegro"
PERFORMER "Quatuor Festetics"
INDEX 01 29:32:16
TRACK 07 AUDIO
TITLE "Quartet f-moll Hob.III/61 - III. Menuetto. Allegretto"
PERFORMER "Quatuor Festetics"
INDEX 01 37:29:36
TRACK 08 AUDIO
TITLE "Quartet f-moll Hob.III/61 - IV. Finale. Presto"
PERFORMER "Quatuor Festetics"
INDEX 01 43:08:64
TRACK 09 AUDIO
TITLE "Quartet B-Dur Hob.III/62 - I. Vivace assai"
PERFORMER "Quatuor Festetics"
INDEX 00 49:20:15
INDEX 01 49:27:15
TRACK 10 AUDIO
TITLE "Quartet B-Dur Hob.III/62 - II. Adagio ma non troppo"
PERFORMER "Quatuor Festetics"
INDEX 01 57:06:25
TRACK 11 AUDIO
TITLE "Quartet B-Dur Hob.III/62 - III. Menuetto"
PERFORMER "Quatuor Festetics"
INDEX 01 64:29:08
TRACK 12 AUDIO
TITLE "Quartet B-Dur Hob.III/62 - IV. Finale. Presto"
PERFORMER "Quatuor Festetics"
INDEX 01 69:51:49



Показать сообщения:    

Текущее время: 04-Дек 21:25

Часовой пояс: UTC + 3


Вы не можете начинать темы
Вы не можете отвечать на сообщения
Вы не можете редактировать свои сообщения
Вы не можете удалять свои сообщения
Вы не можете голосовать в опросах
Вы не можете прикреплять файлы к сообщениям
Вы не можете скачивать файлы