(Opera) Ruggero Leoncavallo - Chatterton / Руджеро Леонкавалло - Чаттертон (Silvano Frontalini; Maurizio Zanchetti, Enrica Bassano, Tiziana Scaglia Della Silva, Renato Zuin), Studio recording - 2005, FLAC (tracks), lossless


 

[Цитировать]

Ruggero Leoncavallo - Chatterton / Руджеро Леонкавалло - Чаттертон (Silvano Frontalini; Maurizio Zanchetti, Enrica Bassano, Tiziana Scaglia Della Silva, Renato Zuin)
Жанр: Opera
Страна-производитель диска: Италия
Год издания диска: 2005
Издатель (лейбл): Bongiovanni
Дата записи: 2005
Аудиокодек: FLAC
Тип рипа: tracks+.cue
Битрейт аудио: lossless
Продолжительность: 106:58
Источник: релизер (Guillermo)
Исполнители:
Giorgio - Maurizio Zanchetti,
Il piccolo Henry - Enrica Bassano,
Jenny Clark - Tiziana Scaglia Della Silva,
John Clark - Iacobone Cesidio,
Lord Klifford - Fabrizio Neri,
Lord Lingstom - Salvatore Bellia,
Lord Strafford - Massimiliano Fiorini,
Servo - Vittorio Chisi,
Skirner - Salvatore Bellia,
Thomas Chatterton - Renato Zuin.
Silvano Frontalini, Conductor,
Orchestra dell'Opera Ucraina di Dnierpropetrovsk,
Coro Filarmonico di Pesaro.

Лог создания рипаЛог создания рипа CD 1

Exact Audio Copy V1.0 beta 3 from 29. August 2011
EAC extraction logfile from 4. September 2015, 6:25
Artista desconocido / Título desconocido
Used drive : HL-DT-STDVDRAM GH24NSC0 Adapter: 3 ID: 0
Read mode : Secure
Utilize accurate stream : Yes
Defeat audio cache : Yes
Make use of C2 pointers : No
Read offset correction : 6
Overread into Lead-In and Lead-Out : No
Fill up missing offset samples with silence : Yes
Delete leading and trailing silent blocks : No
Null samples used in CRC calculations : Yes
Used interface : Native Win32 interface for Win NT & 2000
Gap handling : Appended to previous track
Used output format : User Defined Encoder
Selected bitrate : 768 kBit/s
Quality : High
Add ID3 tag : No
Command line compressor : C:\Program Files (x86)\Exact Audio Copy\FLAC\FLAC.EXE
Additional command line options : -8 -V -T "ARTIST=%artist%" -T "TITLE=%title%" -T "ALBUM=%albumtitle%" -T "DATE=%year%" -T "TRACKNUMBER=%tracknr%" -T "GENRE=%genre%" -T "PERFORMER=%albuminterpret%" -T "COMPOSER=%composer%" %haslyrics%--tag-from-file=LYRICS="%lyricsfile%"%haslyrics% -T "ALBUMARTIST=%albumartist%" -T "DISCNUMBER=%cdnumber%" -T "TOTALDISCS=%totalcds%" -T "TOTALTRACKS=%numtracks%" -T "COMMENT=%comment%" %source% -o %dest%
TOC of the extracted CD
Track | Start | Length | Start sector | End sector
---------------------------------------------------------
1 | 0:00.00 | 5:01.30 | 0 | 22604
2 | 5:01.30 | 2:51.57 | 22605 | 35486
3 | 7:53.12 | 1:37.32 | 35487 | 42793
4 | 9:30.44 | 1:57.61 | 42794 | 51629
5 | 11:28.30 | 3:44.06 | 51630 | 68435
6 | 15:12.36 | 6:02.74 | 68436 | 95659
7 | 21:15.35 | 2:46.28 | 95660 | 108137
8 | 24:01.63 | 2:11.55 | 108138 | 118017
9 | 26:13.43 | 0:50.56 | 118018 | 121823
10 | 27:04.24 | 6:05.50 | 121824 | 149248
Track 1
Filename f:\Users\Guillermo\Desktop\EAC convertidos\01 Pista01.wav
Pre-gap length 0:00:02.00
Peak level 51.6 %
Extraction speed 1.7 X
Track quality 100.0 %
Test CRC 345086E4
Copy CRC 345086E4
Copy OK
Track 2
Filename f:\Users\Guillermo\Desktop\EAC convertidos\02 Pista02.wav
Pre-gap length 0:00:02.00
Peak level 85.2 %
Extraction speed 1.4 X
Track quality 99.8 %
Test CRC 7D5DA88B
Copy CRC 7D5DA88B
Copy OK
Track 3
Filename f:\Users\Guillermo\Desktop\EAC convertidos\03 Pista03.wav
Pre-gap length 0:00:02.00
Peak level 57.5 %
Extraction speed 1.5 X
Track quality 100.0 %
Test CRC 50CB0982
Copy CRC 50CB0982
Copy OK
Track 4
Filename f:\Users\Guillermo\Desktop\EAC convertidos\04 Pista04.wav
Pre-gap length 0:00:02.00
Peak level 55.7 %
Extraction speed 1.6 X
Track quality 100.0 %
Test CRC E477C9AD
Copy CRC E477C9AD
Copy OK
Track 5
Filename f:\Users\Guillermo\Desktop\EAC convertidos\05 Pista05.wav
Pre-gap length 0:00:02.00
Peak level 59.4 %
Extraction speed 2.0 X
Track quality 100.0 %
Test CRC 8B32CB30
Copy CRC 8B32CB30
Copy OK
Track 6
Filename f:\Users\Guillermo\Desktop\EAC convertidos\06 Pista06.wav
Pre-gap length 0:00:02.00
Peak level 56.1 %
Extraction speed 2.1 X
Track quality 99.9 %
Test CRC 9F3FD778
Copy CRC 9F3FD778
Copy OK
Track 7
Filename f:\Users\Guillermo\Desktop\EAC convertidos\07 Pista07.wav
Pre-gap length 0:00:02.00
Peak level 93.5 %
Extraction speed 2.1 X
Track quality 100.0 %
Test CRC 6705EF67
Copy CRC 6705EF67
Copy OK
Track 8
Filename f:\Users\Guillermo\Desktop\EAC convertidos\08 Pista08.wav
Pre-gap length 0:00:02.00
Peak level 90.4 %
Extraction speed 2.1 X
Track quality 100.0 %
Test CRC 9B92B6E0
Copy CRC 9B92B6E0
Copy OK
Track 9
Filename f:\Users\Guillermo\Desktop\EAC convertidos\09 Pista09.wav
Pre-gap length 0:00:02.00
Peak level 22.7 %
Extraction speed 1.4 X
Track quality 100.0 %
Test CRC 03710464
Copy CRC 03710464
Copy OK
Track 10
Filename f:\Users\Guillermo\Desktop\EAC convertidos\10 Pista10.wav
Pre-gap length 0:00:02.00
Peak level 72.3 %
Extraction speed 2.7 X
Track quality 100.0 %
Test CRC 175007BC
Copy CRC 175007BC
Copy OK
No errors occurred
End of status report
==== Log checksum 8A1657448B894F90813A1EBA73AD9D5C58E74696A06710BB60437B19842F10D6 ====

Лог создания рипа CD 2

Exact Audio Copy V1.0 beta 3 from 29. August 2011
EAC extraction logfile from 4. September 2015, 7:55
Artista desconocido / Título desconocido
Used drive : HL-DT-STDVDRAM GH24NSC0 Adapter: 3 ID: 0
Read mode : Secure
Utilize accurate stream : Yes
Defeat audio cache : Yes
Make use of C2 pointers : No
Read offset correction : 6
Overread into Lead-In and Lead-Out : No
Fill up missing offset samples with silence : Yes
Delete leading and trailing silent blocks : No
Null samples used in CRC calculations : Yes
Used interface : Native Win32 interface for Win NT & 2000
Gap handling : Appended to previous track
Used output format : User Defined Encoder
Selected bitrate : 768 kBit/s
Quality : High
Add ID3 tag : No
Command line compressor : C:\Program Files (x86)\Exact Audio Copy\FLAC\FLAC.EXE
Additional command line options : -8 -V -T "ARTIST=%artist%" -T "TITLE=%title%" -T "ALBUM=%albumtitle%" -T "DATE=%year%" -T "TRACKNUMBER=%tracknr%" -T "GENRE=%genre%" -T "PERFORMER=%albuminterpret%" -T "COMPOSER=%composer%" %haslyrics%--tag-from-file=LYRICS="%lyricsfile%"%haslyrics% -T "ALBUMARTIST=%albumartist%" -T "DISCNUMBER=%cdnumber%" -T "TOTALDISCS=%totalcds%" -T "TOTALTRACKS=%numtracks%" -T "COMMENT=%comment%" %source% -o %dest%
TOC of the extracted CD
Track | Start | Length | Start sector | End sector
---------------------------------------------------------
1 | 0:00.00 | 5:41.03 | 0 | 25577
2 | 5:41.03 | 3:21.66 | 25578 | 40718
3 | 9:02.69 | 2:07.72 | 40719 | 50315
4 | 11:10.66 | 2:54.43 | 50316 | 63408
5 | 14:05.34 | 2:03.23 | 63409 | 72656
6 | 16:08.57 | 1:24.66 | 72657 | 79022
7 | 17:33.48 | 2:41.51 | 79023 | 91148
8 | 20:15.24 | 4:48.66 | 91149 | 112814
9 | 25:04.15 | 6:07.48 | 112815 | 140387
10 | 31:11.63 | 12:19.69 | 140388 | 195881
11 | 43:31.57 | 1:35.51 | 195882 | 203057
12 | 45:07.33 | 2:27.12 | 203058 | 214094
13 | 47:34.45 | 3:01.24 | 214095 | 227693
14 | 50:35.69 | 5:34.30 | 227694 | 252773
15 | 56:10.24 | 4:23.21 | 252774 | 272519
16 | 60:33.45 | 2:04.00 | 272520 | 281819
17 | 62:37.45 | 3:21.48 | 281820 | 296942
18 | 65:59.18 | 4:09.15 | 296943 | 315632
19 | 70:08.33 | 4:35.32 | 315633 | 336289
Track 1
Filename f:\Users\Guillermo\Desktop\EAC convertidos\01 Pista01.wav
Pre-gap length 0:00:02.00
Peak level 47.3 %
Extraction speed 1.8 X
Track quality 100.0 %
Test CRC 4C94EADA
Copy CRC 4C94EADA
Copy OK
Track 2
Filename f:\Users\Guillermo\Desktop\EAC convertidos\02 Pista02.wav
Pre-gap length 0:00:02.00
Peak level 47.3 %
Extraction speed 1.8 X
Track quality 100.0 %
Test CRC 063E279D
Copy CRC 063E279D
Copy OK
Track 3
Filename f:\Users\Guillermo\Desktop\EAC convertidos\03 Pista03.wav
Pre-gap length 0:00:02.00
Peak level 34.5 %
Extraction speed 1.7 X
Track quality 100.0 %
Test CRC 0EC538A7
Copy CRC 0EC538A7
Copy OK
Track 4
Filename f:\Users\Guillermo\Desktop\EAC convertidos\04 Pista04.wav
Pre-gap length 0:00:02.00
Peak level 53.0 %
Extraction speed 1.9 X
Track quality 100.0 %
Test CRC 84552832
Copy CRC 84552832
Copy OK
Track 5
Filename f:\Users\Guillermo\Desktop\EAC convertidos\05 Pista05.wav
Pre-gap length 0:00:02.00
Peak level 51.5 %
Extraction speed 1.4 X
Track quality 99.8 %
Test CRC F79C9F2E
Copy CRC F79C9F2E
Copy OK
Track 6
Filename f:\Users\Guillermo\Desktop\EAC convertidos\06 Pista06.wav
Pre-gap length 0:00:02.00
Peak level 46.3 %
Extraction speed 1.6 X
Track quality 100.0 %
Test CRC BA1898F1
Copy CRC BA1898F1
Copy OK
Track 7
Filename f:\Users\Guillermo\Desktop\EAC convertidos\07 Pista07.wav
Pre-gap length 0:00:02.00
Peak level 59.6 %
Extraction speed 2.1 X
Track quality 100.0 %
Test CRC 8349938F
Copy CRC 8349938F
Copy OK
Track 8
Filename f:\Users\Guillermo\Desktop\EAC convertidos\08 Pista08.wav
Pre-gap length 0:00:02.00
Peak level 51.8 %
Extraction speed 2.4 X
Track quality 100.0 %
Test CRC 55015D83
Copy CRC 55015D83
Copy OK
Track 9
Filename f:\Users\Guillermo\Desktop\EAC convertidos\09 Pista09.wav
Pre-gap length 0:00:02.00
Peak level 64.3 %
Extraction speed 2.7 X
Track quality 100.0 %
Test CRC 8FDCE5C1
Copy CRC 8FDCE5C1
Copy OK
Track 10
Filename f:\Users\Guillermo\Desktop\EAC convertidos\10 Pista10.wav
Pre-gap length 0:00:02.00
Peak level 99.3 %
Extraction speed 3.0 X
Track quality 99.9 %
Test CRC 6512B377
Copy CRC 6512B377
Copy OK
Track 11
Filename f:\Users\Guillermo\Desktop\EAC convertidos\11 Pista11.wav
Pre-gap length 0:00:02.00
Peak level 60.2 %
Extraction speed 2.3 X
Track quality 100.0 %
Test CRC 7511E828
Copy CRC 7511E828
Copy OK
Track 12
Filename f:\Users\Guillermo\Desktop\EAC convertidos\12 Pista12.wav
Pre-gap length 0:00:02.00
Peak level 94.2 %
Extraction speed 2.6 X
Track quality 100.0 %
Test CRC 6562D3CE
Copy CRC 6562D3CE
Copy OK
Track 13
Filename f:\Users\Guillermo\Desktop\EAC convertidos\13 Pista13.wav
Pre-gap length 0:00:02.00
Peak level 27.3 %
Extraction speed 2.3 X
Track quality 99.8 %
Test CRC 7F127E47
Copy CRC 7F127E47
Copy OK
Track 14
Filename f:\Users\Guillermo\Desktop\EAC convertidos\14 Pista14.wav
Pre-gap length 0:00:02.00
Peak level 44.6 %
Extraction speed 3.3 X
Track quality 100.0 %
Test CRC 79F7D52E
Copy CRC 79F7D52E
Copy OK
Track 15
Filename f:\Users\Guillermo\Desktop\EAC convertidos\15 Pista15.wav
Pre-gap length 0:00:02.00
Peak level 71.5 %
Extraction speed 3.3 X
Track quality 100.0 %
Test CRC 8CEE5032
Copy CRC 8CEE5032
Copy OK
Track 16
Filename f:\Users\Guillermo\Desktop\EAC convertidos\16 Pista16.wav
Pre-gap length 0:00:02.00
Peak level 45.2 %
Extraction speed 2.8 X
Track quality 100.0 %
Test CRC AC19FE83
Copy CRC AC19FE83
Copy OK
Track 17
Filename f:\Users\Guillermo\Desktop\EAC convertidos\17 Pista17.wav
Pre-gap length 0:00:02.00
Peak level 54.2 %
Extraction speed 3.2 X
Track quality 100.0 %
Test CRC B9BB9EE8
Copy CRC B9BB9EE8
Copy OK
Track 18
Filename f:\Users\Guillermo\Desktop\EAC convertidos\18 Pista18.wav
Pre-gap length 0:00:02.00
Peak level 63.0 %
Extraction speed 2.9 X
Track quality 99.9 %
Test CRC 9521C28D
Copy CRC 9521C28D
Copy OK
Track 19
Filename f:\Users\Guillermo\Desktop\EAC convertidos\19 Pista19.wav
Pre-gap length 0:00:02.00
Peak level 83.9 %
Extraction speed 3.6 X
Track quality 100.0 %
Test CRC AA1CBC52
Copy CRC AA1CBC52
Copy OK
No errors occurred
End of status report
==== Log checksum FD1F66AAF13C0AD08094F68977B95B2AC30A9BC9911D7578AAC4B0AED42F893C ====

Треклист

Disc 1:
Act I:
1. Charley!... Holger! Qualcuno...
2. Lesti, lesti
3. Alfin buondì
4. Di chi parla?
5. Ricomposi l'antica favella
6. Oh! quale conore
7. Perchè severa
8. John dite che si apprestino i cavalli
9. Perdonatemi
10. Gli amici suoi perché il signor non segue
Disc 2:
Act II:
1. Intermezzo
2. A Dio sia gloria
3. Ah! m'ero addormentato
4. Stanco spossato
5. Tu sola a me rimani
6. Son certo ch'ei dorme
7. La scatola a dipingere
8. D'acqua e di pane li provvide Abramo
9. Deggio il dono accettar?
10. Ma un'immensa pietà
11. Iddio dall'alto
12. Grazia per lei
Act III:
13. Scherzo
14. Ah! Mistress
15. Addio tranquillo asil
16. Salve, ora prima di qiete
17. Non credete a' poeti
18. Col dritto di una donna
19. Ah! Patria infame, tu sei maledetta



Показать сообщения:    

Текущее время: 04-Дек 15:13

Часовой пояс: UTC + 3


Вы не можете начинать темы
Вы не можете отвечать на сообщения
Вы не можете редактировать свои сообщения
Вы не можете удалять свои сообщения
Вы не можете голосовать в опросах
Вы не можете прикреплять файлы к сообщениям
Вы не можете скачивать файлы