(Opera) Piazzolla - María de Buenos Aires (Ensemble Triade: Rewerski, Vega, Paquin, Carte, Chavailliaz, Rody) - 2004, APE (image+.cue) lossless


 

[Цитировать]

Astor Piazzolla - María de Buenos Aires
Жанр: Opera
Страна-производитель диска: Denmark
Год издания диска: 2004
Издатель (лейбл): Classico
Номер по каталогу: 658-9
Дата записи: 2004
Аудиокодек: APE
Тип рипа: image+.cue
Битрейт аудио: lossless
Продолжительность: 45'36+41'46
Источник: собственный рип
Наличие сканов в содержимом раздачи: да
Треклист:
CD1
1. Alevare
2. Tema de María
3. Balada para un organito loco
4. Yo soy María
5. Milonga carrieguera por María la Nina
6. Fuga y mysterio
7. Poema valseado
8. Toccata rea
9. Misere Canyengue
CD2
1. Contramilonga a la funerala por la primera muerte de María
2. Tangata del alba
3. Carta a los árboles y al las chimeneas
4. Aria de los analistas
5. Romanza del Duende poeta y curda
6. Allegro tangabile
7. Milonga de la Anunciación
8. Tangus dei
Исполнители:
Ensemble Triade:
Mariana Rewerski, chant
Orfilia Vega, violoncelle
Marc Paquin, violon
Altena Carte, piano
Alain Chavailliaz, clarinette
Christophe Rody, flute traversère

Лог создания рипа

CD1

Exact Audio Copy V1.0 beta 6 from 9. April 2015
EAC extraction logfile from 28. September 2015, 13:36
Marina Rewerski - Vega, Paquin, Carte, Chavailliaz, Rody / Piazzolla - Maria de Buenos Aires CD1
Used drive : TSSTcorpCDDVDW SE-208AB Adapter: 1 ID: 2
Read mode : Secure
Utilize accurate stream : Yes
Defeat audio cache : Yes
Make use of C2 pointers : No
Read offset correction : 6
Overread into Lead-In and Lead-Out : No
Fill up missing offset samples with silence : Yes
Delete leading and trailing silent blocks : No
Null samples used in CRC calculations : Yes
Used interface : Native Win32 interface for Win NT & 2000
Used output format : Monkey's Audio Lossless Encoder
Selected bitrate : High Lossless Compression
Quality : High
Add ID3 tag : Yes
Command line compressor : C:\Program Files (x86)\Exact Audio Copy\MAC\MAC.exe
TOC of the extracted CD
Track | Start | Length | Start sector | End sector
---------------------------------------------------------
1 | 0:00.00 | 6:05.00 | 0 | 27374
2 | 6:05.00 | 5:37.00 | 27375 | 52649
3 | 11:42.00 | 8:08.00 | 52650 | 89249
4 | 19:50.00 | 3:30.00 | 89250 | 104999
5 | 23:20.00 | 5:51.00 | 105000 | 131324
6 | 29:11.00 | 3:49.00 | 131325 | 148499
7 | 33:00.00 | 2:47.00 | 148500 | 161024
8 | 35:47.00 | 3:33.00 | 161025 | 176999
9 | 39:20.00 | 6:16.20 | 177000 | 205219
Range status and errors
Selected range
Filename D:\EAC\Piazzolla - Maria de Buenos Aires CD1.wav
Peak level 98.8 %
Extraction speed 1.7 X
Range quality 100.0 %
Test CRC 51896C4D
Copy CRC 51896C4D
Copy OK
No errors occurred
AccurateRip summary
Track 1 accurately ripped (confidence 1) [08FBE32B] (AR v1)
Track 2 accurately ripped (confidence 1) [7A39C6D1] (AR v1)
Track 3 accurately ripped (confidence 1) [F88624A5] (AR v1)
Track 4 accurately ripped (confidence 1) [0508A553] (AR v1)
Track 5 accurately ripped (confidence 1) [8B5A472B] (AR v1)
Track 6 accurately ripped (confidence 1) [B88E7C1F] (AR v1)
Track 7 accurately ripped (confidence 1) [40BFF71B] (AR v1)
Track 8 accurately ripped (confidence 1) [BC4E93C5] (AR v1)
Track 9 accurately ripped (confidence 1) [74E42722] (AR v1)
All tracks accurately ripped
End of status report
---- CUETools DB Plugin V2.1.6
[CTDB TOCID: eY9PXH7kcuNb1ysBdtS7rngJj5c-] found
Submit result: eY9PXH7kcuNb1ysBdtS7rngJj5c- has been confirmed
Track | CTDB Status
1 | (2/2) Accurately ripped
2 | (2/2) Accurately ripped
3 | (2/2) Accurately ripped
4 | (2/2) Accurately ripped
5 | (2/2) Accurately ripped
6 | (2/2) Accurately ripped
7 | (2/2) Accurately ripped
8 | (2/2) Accurately ripped
9 | (2/2) Accurately ripped
==== Log checksum 161B63063F853D830F2EC1B02E15CB93B01D69AEFBBE3687559B75F208D76F75 ====

CD2

Exact Audio Copy V1.0 beta 6 from 9. April 2015
EAC extraction logfile from 28. September 2015, 13:35
Marina Rewerski - Vega, Paquin, Carte, Chavailliaz, Rody / Piazzolla - Maria de Buenos Aires CD2
Used drive : TS8XDVDSTRANSCEND Adapter: 1 ID: 1
Read mode : Secure
Utilize accurate stream : Yes
Defeat audio cache : Yes
Make use of C2 pointers : No
Read offset correction : 6
Overread into Lead-In and Lead-Out : No
Fill up missing offset samples with silence : Yes
Delete leading and trailing silent blocks : No
Null samples used in CRC calculations : Yes
Used interface : Native Win32 interface for Win NT & 2000
Used output format : Monkey's Audio Lossless Encoder
Selected bitrate : High Lossless Compression
Quality : High
Add ID3 tag : Yes
Command line compressor : C:\Program Files (x86)\Exact Audio Copy\MAC\MAC.exe
TOC of the extracted CD
Track | Start | Length | Start sector | End sector
---------------------------------------------------------
1 | 0:00.00 | 4:27.00 | 0 | 20024
2 | 4:27.00 | 4:52.02 | 20025 | 41926
3 | 9:19.02 | 3:34.73 | 41927 | 58049
4 | 12:54.00 | 6:48.00 | 58050 | 88649
5 | 19:42.00 | 6:28.22 | 88650 | 117771
6 | 26:10.22 | 2:55.28 | 117772 | 130924
7 | 29:05.50 | 3:24.47 | 130925 | 146271
8 | 32:30.22 | 9:15.60 | 146272 | 187956
Range status and errors
Selected range
Filename D:\EAC\Piazzolla - Maria de Buenos Aires CD2.wav
Peak level 99.0 %
Extraction speed 1.7 X
Range quality 100.0 %
Test CRC D41DE893
Copy CRC D41DE893
Copy OK
No errors occurred
AccurateRip summary
Track 1 accurately ripped (confidence 1) [27B0E085] (AR v1)
Track 2 accurately ripped (confidence 1) [D57AB043] (AR v1)
Track 3 accurately ripped (confidence 1) [FC2E592A] (AR v1)
Track 4 accurately ripped (confidence 1) [59E3930F] (AR v1)
Track 5 accurately ripped (confidence 1) [FB10DA50] (AR v1)
Track 6 accurately ripped (confidence 1) [20FAF014] (AR v1)
Track 7 accurately ripped (confidence 1) [249DC1ED] (AR v1)
Track 8 accurately ripped (confidence 1) [F398DC61] (AR v1)
All tracks accurately ripped
End of status report
---- CUETools DB Plugin V2.1.6
[CTDB TOCID: 1WGdYfue03D9vVIZ5hrA.B32_f4-] found
Submit result: unrecognized or virtual drive
Track | CTDB Status
1 | (1/1) Accurately ripped
2 | (1/1) Accurately ripped
3 | (1/1) Accurately ripped
4 | (1/1) Accurately ripped
5 | (1/1) Accurately ripped
6 | (1/1) Accurately ripped
7 | (1/1) Accurately ripped
8 | (1/1) Accurately ripped
==== Log checksum 4D303CB81D24BDED17E62199CC81B7266CF1D9A8786BED3C71BCE035FC21ADC7 ====

Содержание индексной карты (.CUE)

CD1

REM GENRE Opera
REM DATE 2004
REM DISCID 720AB009
REM COMMENT "ExactAudioCopy v1.0b6"
PERFORMER "Ensemble Triade - Marina Rewerski, chant"
TITLE "Piazzolla - Maria de Buenos Aires CD1"
FILE "Piazzolla - Maria de Buenos Aires CD1.ape" WAVE
TRACK 01 AUDIO
TITLE "Alevare"
PERFORMER "Ensemble Triade - Marina Rewerski, chant"
INDEX 01 00:00:00
TRACK 02 AUDIO
TITLE "Tema de María"
PERFORMER "Ensemble Triade - Marina Rewerski, chant"
INDEX 01 06:05:00
TRACK 03 AUDIO
TITLE "Balada para un organito loco"
PERFORMER "Ensemble Triade - Marina Rewerski, chant"
INDEX 01 11:42:00
TRACK 04 AUDIO
TITLE "Yo soy María"
PERFORMER "Ensemble Triade - Marina Rewerski, chant"
INDEX 01 19:50:00
TRACK 05 AUDIO
TITLE "Milonga carrieguera por María la Nina"
PERFORMER "Ensemble Triade - Marina Rewerski, chant"
INDEX 01 23:20:00
TRACK 06 AUDIO
TITLE "Fuga y mysterio"
PERFORMER "Ensemble Triade - Marina Rewerski, chant"
INDEX 01 29:11:00
TRACK 07 AUDIO
TITLE "Poema valseado"
PERFORMER "Ensemble Triade - Marina Rewerski, chant"
INDEX 01 33:00:00
TRACK 08 AUDIO
TITLE "Toccata rea"
PERFORMER "Ensemble Triade - Marina Rewerski, chant"
INDEX 01 35:47:00
TRACK 09 AUDIO
TITLE "Misere Canyengue"
PERFORMER "Ensemble Triade - Marina Rewerski, chant"
INDEX 01 39:20:00

CD2

REM GENRE Opera
REM DATE 2004
REM DISCID 7409CA08
REM COMMENT "ExactAudioCopy v1.0b6"
PERFORMER "Ensemble Triade - Marina Rewerski, chant"
TITLE "Piazzolla - Maria de Buenos Aires CD2"
FILE "Piazzolla - Maria de Buenos Aires CD2.ape" WAVE
TRACK 01 AUDIO
TITLE "Contramilonga a la funerala por la primera muerte de María"
PERFORMER "Ensemble Triade - Marina Rewerski, chant"
INDEX 01 00:00:00
TRACK 02 AUDIO
TITLE "Tangata del alba"
PERFORMER "Ensemble Triade - Marina Rewerski, chant"
INDEX 00 04:23:22
INDEX 01 04:27:00
TRACK 03 AUDIO
TITLE "Carta a los árboles y al las chimeneas"
PERFORMER "Ensemble Triade - Marina Rewerski, chant"
INDEX 00 09:15:70
INDEX 01 09:19:02
TRACK 04 AUDIO
TITLE "Aria de los analistas"
PERFORMER "Ensemble Triade - Marina Rewerski, chant"
INDEX 00 12:49:62
INDEX 01 12:54:00
TRACK 05 AUDIO
TITLE "Romanza del Duende poeta y curda"
PERFORMER "Ensemble Triade - Marina Rewerski, chant"
INDEX 00 19:38:70
INDEX 01 19:42:00
TRACK 06 AUDIO
TITLE "Allegro tangabile"
PERFORMER "Ensemble Triade - Marina Rewerski, chant"
INDEX 00 26:06:57
INDEX 01 26:10:22
TRACK 07 AUDIO
TITLE "Milonga de la Anunciación"
PERFORMER "Ensemble Triade - Marina Rewerski, chant"
INDEX 00 29:02:07
INDEX 01 29:05:50
TRACK 08 AUDIO
TITLE "Tangus dei"
PERFORMER "Ensemble Triade - Marina Rewerski, chant"
INDEX 00 32:26:65
INDEX 01 32:30:22



Показать сообщения:    

Текущее время: 06-Дек 18:59

Часовой пояс: UTC + 3


Вы не можете начинать темы
Вы не можете отвечать на сообщения
Вы не можете редактировать свои сообщения
Вы не можете удалять свои сообщения
Вы не можете голосовать в опросах
Вы не можете прикреплять файлы к сообщениям
Вы не можете скачивать файлы