(Opera) Boito - Mefistofele (Dall'Argine, Noli, Ticozzi, Poggi - Orchestra e Coro del Teatro alla Scala di Milano, Capuano) - 2003, APE (image+.cue) lossless


 

[Цитировать]

Arrigo Boito - Mefistofele
Жанр: Opera
Страна-производитель диска: Germany
Год издания диска: 2003
Издатель (лейбл): Cantus Classics
Номер по каталогу: 5.00330
Дата записи: 1952
Аудиокодек: APE
Тип рипа: image+.cue
Битрейт аудио: lossless
Продолжительность: 63'08+72'32
Источник: собственный рип
Наличие сканов в содержимом раздачи: да
Треклист:

CD1

Prolog
1. Ave, Signor degli e dei santi
2. Ave, Signo
3. T'é noto Faust?
4. Siam nimbi volanti dai limbi
5. Salve Regina
Act 1
6. Perchè di là?
7. Al soave raggiar di primavera
8. Dai campi, dai prati
9. Son lo Spirito che nega sempre
10. Se tu mi doni un'ora di riposo
Act 2
11. Cavaliere illustre e saggio

CD2

1. Su, cammina, cammina
2. Ecco il mondo
Act 3
3. L'altra notte in fondo al mare
4. Lontano, lontano
5. Spunta l'aurora pallida
Act 4
6. La luna immobile innonda l'etere d'un raggio pallido
7. Notte cupa, truce, senza fine
8. Forma ideal purissima della bellezza eterna
Epilog
9. Cammina, cammina
10. Giunto sul passo estremo
11. Vien! io distendo questo mantel
Исполнители:
Arrigo Boito - Mefistofele
Opera in a prologue, four acts and an epilogue
Libretto by Arrigo Boito based on Johann Wolfgang von Goethe's play Faust
Mefistofele - Giulio Neri
Faust - Gianni Poggi
Margherita - Rosetta Noli
Elena - Simona Dall' Argine
Martha - Ebe Ticozzi
Wagner - Gino Del Signore
Pantalis - Ebe Ticozzi
Nereo - Gino Del Signore
Orchestra e Coro del Teatro alla Scala di Milano
Franco Capuano, conductor.

Лог создания рипа

CD1

Exact Audio Copy V1.0 beta 6 from 9. April 2015
EAC extraction logfile from 2. September 2015, 23:06
Neri, Poggi, Signore, Noli - Coro e Orchestra alla Scala / Boito - Mefistofele, Capuana CD1
Used drive : TSSTcorpCDDVDW SE-208AB Adapter: 1 ID: 2
Read mode : Secure
Utilize accurate stream : Yes
Defeat audio cache : Yes
Make use of C2 pointers : No
Read offset correction : 6
Overread into Lead-In and Lead-Out : No
Fill up missing offset samples with silence : Yes
Delete leading and trailing silent blocks : No
Null samples used in CRC calculations : Yes
Used interface : Native Win32 interface for Win NT & 2000
Used output format : Monkey's Audio Lossless Encoder
Selected bitrate : High Lossless Compression
Quality : High
Add ID3 tag : Yes
Command line compressor : C:\Program Files (x86)\Exact Audio Copy\MAC\MAC.exe
TOC of the extracted CD
Track | Start | Length | Start sector | End sector
---------------------------------------------------------
1 | 0:00.00 | 8:18.44 | 0 | 37393
2 | 8:18.44 | 4:07.57 | 37394 | 55975
3 | 12:26.26 | 2:41.16 | 55976 | 68066
4 | 15:07.42 | 2:12.19 | 68067 | 77985
5 | 17:19.61 | 6:15.16 | 77986 | 106126
6 | 23:35.02 | 4:03.67 | 106127 | 124418
7 | 27:38.69 | 11:12.04 | 124419 | 174822
8 | 38:50.73 | 4:34.10 | 174823 | 195382
9 | 43:25.08 | 4:30.74 | 195383 | 215706
10 | 47:56.07 | 3:47.70 | 215707 | 232801
11 | 51:44.02 | 11:24.63 | 232802 | 284164
Range status and errors
Selected range
Filename D:\EAC\Boito - Mefistofele, Capuana CD1.wav
Peak level 83.5 %
Extraction speed 2.1 X
Range quality 100.0 %
Test CRC BDC7AC4F
Copy CRC BDC7AC4F
Copy OK
No errors occurred
AccurateRip summary
Track 1 accurately ripped (confidence 1) [6A55D35A] (AR v1)
Track 2 accurately ripped (confidence 1) [E4502AE3] (AR v1)
Track 3 accurately ripped (confidence 1) [22DB40B3] (AR v1)
Track 4 accurately ripped (confidence 1) [69F8107D] (AR v1)
Track 5 accurately ripped (confidence 1) [C29874D7] (AR v1)
Track 6 accurately ripped (confidence 1) [72967F8D] (AR v1)
Track 7 accurately ripped (confidence 1) [0F7B7A3F] (AR v1)
Track 8 accurately ripped (confidence 1) [49FFD74C] (AR v1)
Track 9 accurately ripped (confidence 1) [A4452E9B] (AR v1)
Track 10 accurately ripped (confidence 1) [83F31BBB] (AR v1)
Track 11 accurately ripped (confidence 1) [A76F8BAF] (AR v1)
All tracks accurately ripped
End of status report
---- CUETools DB Plugin V2.1.6
[CTDB TOCID: 5zqjHmMz3ZnfhRklB142kiSEW2I-] disk not present in database
Submit result: 5zqjHmMz3ZnfhRklB142kiSEW2I- has been uploaded
==== Log checksum EAF669F7E6117F47FAEEF00CFDA03A7440694F5B56C524E9A394A9E9A41D4020 ====

CD2

Exact Audio Copy V1.0 beta 6 from 9. April 2015
EAC extraction logfile from 2. September 2015, 22:52
Neri, Poggi, Signore, Noli - Coro e Orchestra alla Scala / Boito - Mefistofele, Capuana CD2
Used drive : TS8XDVDSTRANSCEND Adapter: 1 ID: 1
Read mode : Secure
Utilize accurate stream : Yes
Defeat audio cache : Yes
Make use of C2 pointers : No
Read offset correction : 6
Overread into Lead-In and Lead-Out : No
Fill up missing offset samples with silence : Yes
Delete leading and trailing silent blocks : No
Null samples used in CRC calculations : Yes
Used interface : Native Win32 interface for Win NT & 2000
Used output format : Monkey's Audio Lossless Encoder
Selected bitrate : High Lossless Compression
Quality : High
Add ID3 tag : Yes
Command line compressor : C:\Program Files (x86)\Exact Audio Copy\MAC\MAC.exe
TOC of the extracted CD
Track | Start | Length | Start sector | End sector
---------------------------------------------------------
1 | 0:00.00 | 9:42.47 | 0 | 43696
2 | 9:42.47 | 9:02.11 | 43697 | 84357
3 | 18:44.58 | 11:24.57 | 84358 | 135714
4 | 30:09.40 | 4:05.70 | 135715 | 154159
5 | 34:15.35 | 3:03.15 | 154160 | 167899
6 | 37:18.50 | 9:22.10 | 167900 | 210059
7 | 46:40.60 | 4:59.72 | 210060 | 232556
8 | 51:40.57 | 8:43.04 | 232557 | 271785
9 | 60:23.61 | 4:16.54 | 271786 | 291039
10 | 64:40.40 | 4:21.35 | 291040 | 310649
11 | 69:02.00 | 3:30.52 | 310650 | 326451
Range status and errors
Selected range
Filename D:\EAC\Boito - Mefistofele, Capuana CD2.wav
Peak level 70.0 %
Extraction speed 5.2 X
Range quality 100.0 %
Test CRC 09325219
Copy CRC 09325219
Copy OK
No errors occurred
AccurateRip summary
Track 1 accurately ripped (confidence 1) [171D1C19] (AR v1)
Track 2 accurately ripped (confidence 1) [B8A02BA6] (AR v1)
Track 3 accurately ripped (confidence 1) [393091B9] (AR v1)
Track 4 accurately ripped (confidence 1) [50E2A341] (AR v1)
Track 5 accurately ripped (confidence 1) [CE1F4414] (AR v1)
Track 6 accurately ripped (confidence 1) [51821032] (AR v1)
Track 7 accurately ripped (confidence 1) [4CAAFFB2] (AR v1)
Track 8 accurately ripped (confidence 1) [FFF5C1EA] (AR v1)
Track 9 accurately ripped (confidence 1) [EA66E11E] (AR v1)
Track 10 accurately ripped (confidence 1) [19B2D3F2] (AR v1)
Track 11 accurately ripped (confidence 1) [3222F05C] (AR v1)
All tracks accurately ripped
End of status report
---- CUETools DB Plugin V2.1.6
[CTDB TOCID: GN8ZH5uhDa3XzYcrj8b0W6AOk7w-] disk not present in database
Submit result: unrecognized or virtual drive
==== Log checksum 69A742F7A80B7960ED8796DC2538A2C16920702C34E6A76D02B79B44C2360225 ====

Содержание индексной карты (.CUE)

CD1

REM GENRE Opera
REM DATE 1952
REM DISCID 880ECC0B
REM COMMENT "ExactAudioCopy v1.0b6"
PERFORMER "Neri, Poggi, Signore, Noli - Coro e Orchestra alla Scala"
TITLE "Boito - Mefistofele, Capuana CD1"
FILE "Boito - Mefistofele, Capuana CD1.ape" WAVE
TRACK 01 AUDIO
TITLE "Prolog: Ave, Signor degli e dei santi"
PERFORMER "Neri, Poggi, Signore, Noli - Coro e Orchestra alla Scala"
INDEX 01 00:00:00
TRACK 02 AUDIO
TITLE "Ave, Signo"
PERFORMER "Neri, Poggi, Signore, Noli - Coro e Orchestra alla Scala"
INDEX 01 08:18:44
TRACK 03 AUDIO
TITLE "Te'noto Faust?"
PERFORMER "Neri, Poggi, Signore, Noli - Coro e Orchestra alla Scala"
INDEX 01 12:26:26
TRACK 04 AUDIO
TITLE "Siam nimbi volanti dai limbi"
PERFORMER "Neri, Poggi, Signore, Noli - Coro e Orchestra alla Scala"
INDEX 01 15:07:42
TRACK 05 AUDIO
TITLE "Salve Regina"
PERFORMER "Neri, Poggi, Signore, Noli - Coro e Orchestra alla Scala"
INDEX 01 17:19:61
TRACK 06 AUDIO
TITLE "Act I: Perche di la?"
PERFORMER "Neri, Poggi, Signore, Noli - Coro e Orchestra alla Scala"
INDEX 01 23:35:02
TRACK 07 AUDIO
TITLE "Al soave raggiar di primavera"
PERFORMER "Neri, Poggi, Signore, Noli - Coro e Orchestra alla Scala"
INDEX 01 27:38:69
TRACK 08 AUDIO
TITLE "Dai campi, dai prati"
PERFORMER "Neri, Poggi, Signore, Noli - Coro e Orchestra alla Scala"
INDEX 01 38:50:73
TRACK 09 AUDIO
TITLE "Son lo Spirito che nega sempre"
PERFORMER "Neri, Poggi, Signore, Noli - Coro e Orchestra alla Scala"
INDEX 01 43:25:08
TRACK 10 AUDIO
TITLE "Se tu mi doni un'ora di riposo"
PERFORMER "Neri, Poggi, Signore, Noli - Coro e Orchestra alla Scala"
INDEX 01 47:56:07
TRACK 11 AUDIO
TITLE "Act II: Cavaliere illustre e saggio"
PERFORMER "Neri, Poggi, Signore, Noli - Coro e Orchestra alla Scala"
INDEX 01 51:44:02

CD2

REM GENRE Opera
REM DATE 1952
REM DISCID 8211000B
REM COMMENT "ExactAudioCopy v1.0b6"
PERFORMER "Neri, Poggi, Signore, Noli - Coro e Orchestra alla Scala"
TITLE "Boito - Mefistofele, Capuana CD2"
FILE "Boito - Mefistofele, Capuana CD2.ape" WAVE
TRACK 01 AUDIO
TITLE "Act II: Su, cammina, cammina"
PERFORMER "Neri, Poggi, Signore, Noli - Coro e Orchestra alla Scala"
INDEX 01 00:00:00
TRACK 02 AUDIO
TITLE "Ecco il mondo"
PERFORMER "Neri, Poggi, Signore, Noli - Coro e Orchestra alla Scala"
INDEX 01 09:42:47
TRACK 03 AUDIO
TITLE "Act III: L'altra notte in fondo al mare"
PERFORMER "Neri, Poggi, Signore, Noli - Coro e Orchestra alla Scala"
INDEX 01 18:44:58
TRACK 04 AUDIO
TITLE "Lontano, lontano"
PERFORMER "Neri, Poggi, Signore, Noli - Coro e Orchestra alla Scala"
INDEX 01 30:09:40
TRACK 05 AUDIO
TITLE "Spunta l'aurora pallida"
PERFORMER "Neri, Poggi, Signore, Noli - Coro e Orchestra alla Scala"
INDEX 01 34:15:35
TRACK 06 AUDIO
TITLE "Act IV: La luna immobile innonda l'etere d'un raggio pallido"
PERFORMER "Neri, Poggi, Signore, Noli - Coro e Orchestra alla Scala"
INDEX 01 37:18:50
TRACK 07 AUDIO
TITLE "Notte cupa, truce, senza fine"
PERFORMER "Neri, Poggi, Signore, Noli - Coro e Orchestra alla Scala"
INDEX 01 46:40:60
TRACK 08 AUDIO
TITLE "Forma ideal purissima della bellezza eterna"
PERFORMER "Neri, Poggi, Signore, Noli - Coro e Orchestra alla Scala"
INDEX 01 51:40:57
TRACK 09 AUDIO
TITLE "Epilog: Cammina, cammina"
PERFORMER "Neri, Poggi, Signore, Noli - Coro e Orchestra alla Scala"
INDEX 01 60:23:61
TRACK 10 AUDIO
TITLE "Giunto sul passo estremo"
PERFORMER "Neri, Poggi, Signore, Noli - Coro e Orchestra alla Scala"
INDEX 01 64:40:40
TRACK 11 AUDIO
TITLE "Vien! io distendo questo mantel"
PERFORMER "Neri, Poggi, Signore, Noli - Coro e Orchestra alla Scala"
INDEX 01 69:02:00



Показать сообщения:    

Текущее время: 07-Дек 15:28

Часовой пояс: UTC + 3


Вы не можете начинать темы
Вы не можете отвечать на сообщения
Вы не можете редактировать свои сообщения
Вы не можете удалять свои сообщения
Вы не можете голосовать в опросах
Вы не можете прикреплять файлы к сообщениям
Вы не можете скачивать файлы