Лунатик / The Sleepwalker (Мона Фастволд Лерче / Mona Fastvold) [2014, Норвегия, США, драма, DVDRip] + Sub Rus + Original Eng


Статистика раздачи [Обновить пиров]
Размер:  1.36 GB   |    Зарегистрирован:  8 месяцев 21 день   |    Скачан:  0 раз

Полного источника не было: Никогда

 
   
 
 
 

[Цитировать]

Лунатик / The Sleepwalker
Страна: Норвегия, США
Жанр: драма
Год выпуска: 2014
Продолжительность: 01:31:27
Перевод: Субтитры
Cубтитры: русские (creo140)
Оригинальная аудиодорожка: английский
Режиссер: Мона Фастволд Лерче / Mona Fastvold
В ролях: Гитте Уитт, Кристофер Эбботт, Стефани Эллис, Брэйди Корбет
Описание: Молодая пара, Кайя и Эндрю, занимаются реновацией расположенного в уединении поместья, принадлежащего семье Кайи. Их размеренная жизнь резко прерывается внезапным приездом сестры Кайи, Кристин, и её жениха. Прежние обиды и ссоры вновь напоминают о себе, когда на поверхность всплывают переживания, перенесённые в детстве. По мере того, как дни становятся темнее, а ночи беспокойнее, Кайя вынуждена справляться со сложным восприятием реальности Кристин, что, в свою очередь, меняет и её саму.
Доп. информация: http://www.kinopoisk.ru/film/740885/
http://www.imdb.com/title/tt2723576/
Сэмпл: http://multi-up.com/1068620
Качество видео: DVDRip
Формат видео: AVI
Видео: Xvid 720x304 23.976fps 1676kbps
Аудио: Dolby AC3 48000Hz 6ch 448kbps
Формат субтитров: softsub (SRT)

Пример субтитров

1075
01:07:16,145 --> 01:07:17,407
Мы приходим сюда купаться.
1076
01:07:17,447 --> 01:07:18,471
О, Господи.
1077
01:07:18,514 --> 01:07:19,708
Пойдём,
уже темно, Кайя.
1078
01:07:19,749 --> 01:07:21,114
Мы можем вернуться сюда утром.
1079
01:07:21,150 --> 01:07:23,175
Давай приедем на пикапе.
Мы сможем и в городе поискать её.
1080
01:07:23,219 --> 01:07:24,379
Нет, давайте посмотрим.
1081
01:07:24,420 --> 01:07:25,387
Она могла обойти вокруг...
1082
01:07:25,421 --> 01:07:26,752
Что ты делаешь?
- Ты же знаешь, на другой стороне.
1083
01:07:26,789 --> 01:07:27,756
Что ты делаешь?
1084
01:07:27,790 --> 01:07:29,257
Ты свихнулась что-ли?
1085
01:07:29,292 --> 01:07:31,760
Кристин!

MediaInfo

Format : AVI
Format/Info : Audio Video Interleave
File size : 1.36 GiB
Duration : 1h 31mn
Overall bit rate : 2 134 Kbps
Writing application : VirtualDubMod 1.5.10.3 | www.virtualdub-fr.org || (build 2550/release)
Writing library : VirtualDubMod build 2550/release
Video
ID : 0
Format : MPEG-4 Visual
Format profile : Advanced Simple@L5
Format settings, BVOP : 1
Format settings, QPel : No
Format settings, GMC : No warppoints
Format settings, Matrix : Default (MPEG)
Codec ID : XVID
Codec ID/Hint : XviD
Duration : 1h 31mn
Bit rate : 1 677 Kbps
Width : 720 pixels
Height : 304 pixels
Display aspect ratio : 2.35:1
Frame rate : 23.976 fps
Color space : YUV
Chroma subsampling : 4:2:0
Bit depth : 8 bits
Scan type : Progressive
Compression mode : Lossy
Bits/(Pixel*Frame) : 0.320
Stream size : 1.07 GiB (79%)
Writing library : XviD 1.2.1 (UTC 2008-12-04)
Audio
ID : 1
Format : AC-3
Format/Info : Audio Coding 3
Mode extension : CM (complete main)
Format settings, Endianness : Big
Codec ID : 2000
Duration : 1h 31mn
Bit rate mode : Constant
Bit rate : 448 Kbps
Channel(s) : 6 channels
Channel positions : Front: L C R, Side: L R, LFE
Sampling rate : 48.0 KHz
Compression mode : Lossy
Stream size : 293 MiB (21%)
Alignment : Split accross interleaves
Interleave, duration : 42 ms (1.00 video frame)
Interleave, preload duration : 500 ms

Скриншот c названием фильма

[teatrix.ru].t22361.torrent 
Торрент: Зарегистрирован [ 2016-03-20 12:36 ] · 94C5BC39A68757F8052B8FC86B0058322FF68202

Скачать .torrent

Скачать

14 KB

Статус: проверено
Скачан: 0 раз
Размер: 1.36 GB
terms.php



Быстрый ответ

Имя:

      
Для отправки сообщений необходимо включить JavaScript
Показать сообщения:    

Текущее время: 10-Дек 21:34

Часовой пояс: UTC + 3


Вы можете начинать темы
Вы можете отвечать на сообщения
Вы не можете редактировать свои сообщения
Вы не можете удалять свои сообщения
Вы не можете голосовать в опросах
Вы не можете прикреплять файлы к сообщениям
Вы можете скачивать файлы