(Classical) Jean-Philippe Rameau - Orchestral Suites - Orchestra of the Eighteenth Century, Frans Brüggen (Bruggen) - 2008, FLAC (image+.cue) lossless


 

[Цитировать]

Jean-Philippe Rameau - Orchestral Suites - Orchestra of the Eighteenth Century, Frans Brüggen
Жанр: Classical
Страна-производитель диска: Spain
Год издания диска: 2008
Издатель (лейбл): Glossa
Номер по каталогу: GCD C81103
Дата записи: 1996, 1997
Аудиокодек: FLAC
Тип рипа: image+.cue
Битрейт аудио: lossless
Продолжительность: 66:41
Источник: собственный рип
Наличие сканов в содержимом раздачи: да
Треклист:
Jean-Philippe Rameau (1683-1764)
[1]-[16] Acante et Céphise
(Suite from the Pastorale héroïque)
[17]-[29] Les Fêtes d'Hébé
(Suite from the Opéra-ballet)
Исполнители:
Orchestra of the Eighteenth Century
Frans Brüggen

Лог создания рипа

Exact Audio Copy V1.0 beta 3 from 29. August 2011
EAC extraction logfile from 6. March 2015, 21:01
Orchestra of the Eighteenth Century, Frans Bruggen / Rameau - Orchestral Suites
Used drive : HL-DT-STDVDRAM GU70N Adapter: 0 ID: 0
Read mode : Secure
Utilize accurate stream : Yes
Defeat audio cache : Yes
Make use of C2 pointers : No
Read offset correction : 48
Overread into Lead-In and Lead-Out : No
Fill up missing offset samples with silence : Yes
Delete leading and trailing silent blocks : No
Null samples used in CRC calculations : Yes
Used interface : Native Win32 interface for Win NT & 2000
Used output format : User Defined Encoder
Selected bitrate : 128 kBit/s
Quality : High
Add ID3 tag : No
Command line compressor : C:\Program Files (x86)\Exact Audio Copy\Flac\flac.exe
Additional command line options : -V -8 -T "Date=%year%" -T "Genre=%genre%" %source%
TOC of the extracted CD
Track | Start | Length | Start sector | End sector
---------------------------------------------------------
1 | 0:00.15 | 4:05.17 | 15 | 18406
2 | 4:05.32 | 2:24.48 | 18407 | 29254
3 | 6:30.05 | 1:35.67 | 29255 | 36446
4 | 8:05.72 | 2:16.53 | 36447 | 46699
5 | 10:22.50 | 1:22.60 | 46700 | 52909
6 | 11:45.35 | 1:24.45 | 52910 | 59254
7 | 13:10.05 | 2:49.30 | 59255 | 71959
8 | 15:59.35 | 1:02.67 | 71960 | 76676
9 | 17:02.27 | 2:00.15 | 76677 | 85691
10 | 19:02.42 | 1:01.38 | 85692 | 90304
11 | 20:04.05 | 1:44.67 | 90305 | 98171
12 | 21:48.72 | 0:56.45 | 98172 | 102416
13 | 22:45.42 | 1:47.53 | 102417 | 110494
14 | 24:33.20 | 1:10.07 | 110495 | 115751
15 | 25:43.27 | 3:12.60 | 115752 | 130211
16 | 28:56.12 | 3:32.60 | 130212 | 146171
17 | 32:28.72 | 3:04.15 | 146172 | 159986
18 | 35:33.12 | 2:42.45 | 159987 | 172181
19 | 38:15.57 | 0:44.30 | 172182 | 175511
20 | 39:00.12 | 3:02.00 | 175512 | 189161
21 | 42:02.12 | 2:19.08 | 189162 | 199594
22 | 44:21.20 | 1:46.22 | 199595 | 207566
23 | 46:07.42 | 2:16.23 | 207567 | 217789
24 | 48:23.65 | 3:01.00 | 217790 | 231364
25 | 51:24.65 | 2:01.22 | 231365 | 240461
26 | 53:26.12 | 4:55.15 | 240462 | 262601
27 | 58:21.27 | 1:42.38 | 262602 | 270289
28 | 60:03.65 | 4:19.67 | 270290 | 289781
29 | 64:23.57 | 2:17.35 | 289782 | 300091
Range status and errors
Selected range
Filename C:\temp\GCD C81103 Rameau - Orchestral Suites (Orchestra of the Eighteenth Century, Bruggen)\Rameau - Orchestral Suites.wav
Peak level 99.7 %
Extraction speed 2.2 X
Range quality 100.0 %
Test CRC 975761C2
Copy CRC 975761C2
Copy OK
No errors occurred
AccurateRip summary
Track 1 accurately ripped (confidence 5) [FF2C0376] (AR v2)
Track 2 accurately ripped (confidence 5) [5F3291C9] (AR v2)
Track 3 accurately ripped (confidence 5) [901C9CE8] (AR v2)
Track 4 accurately ripped (confidence 5) [80A4863B] (AR v2)
Track 5 accurately ripped (confidence 5) [DD3EC8F0] (AR v2)
Track 6 accurately ripped (confidence 5) [3B873418] (AR v2)
Track 7 accurately ripped (confidence 5) [73795902] (AR v2)
Track 8 accurately ripped (confidence 5) [06976C4E] (AR v2)
Track 9 accurately ripped (confidence 5) [4283778D] (AR v2)
Track 10 accurately ripped (confidence 5) [32D39B17] (AR v2)
Track 11 accurately ripped (confidence 5) [F8659B3D] (AR v2)
Track 12 accurately ripped (confidence 5) [D7888F64] (AR v2)
Track 13 accurately ripped (confidence 5) [456E712B] (AR v2)
Track 14 accurately ripped (confidence 5) [665C24EA] (AR v2)
Track 15 accurately ripped (confidence 5) [E0D02744] (AR v2)
Track 16 accurately ripped (confidence 5) [B6D7586B] (AR v2)
Track 17 accurately ripped (confidence 5) [8735CED9] (AR v2)
Track 18 accurately ripped (confidence 5) [D3093A39] (AR v2)
Track 19 accurately ripped (confidence 5) [AB784A7E] (AR v2)
Track 20 accurately ripped (confidence 5) [92623B4F] (AR v2)
Track 21 accurately ripped (confidence 5) [B4E178E0] (AR v2)
Track 22 accurately ripped (confidence 5) [DF421539] (AR v2)
Track 23 accurately ripped (confidence 5) [3F8E1BFB] (AR v2)
Track 24 accurately ripped (confidence 5) [04F28F06] (AR v2)
Track 25 accurately ripped (confidence 5) [AAEA00B3] (AR v2)
Track 26 accurately ripped (confidence 5) [B86AE831] (AR v2)
Track 27 accurately ripped (confidence 5) [72ACA820] (AR v2)
Track 28 accurately ripped (confidence 5) [0B1C131E] (AR v2)
Track 29 accurately ripped (confidence 5) [C2CBE9BE] (AR v2)
All tracks accurately ripped
End of status report
==== Log checksum 43570A84245E5564565EF215F5EA6EB58DE7F6FE19710D1F4FE09C13CAC295DD ====



Показать сообщения:    

Текущее время: 05-Дек 19:40

Часовой пояс: UTC + 3


Вы не можете начинать темы
Вы не можете отвечать на сообщения
Вы не можете редактировать свои сообщения
Вы не можете удалять свои сообщения
Вы не можете голосовать в опросах
Вы не можете прикреплять файлы к сообщениям
Вы не можете скачивать файлы