[TR24][SM][OF] Johannes Brahms - The Two Sonatas for Cello and Piano - Jacqueline du Pre & Daniel Barenboim - 1968 (Classical)


Статистика раздачи [Обновить пиров]
Размер:  1 GB   |    Зарегистрирован:  8 месяцев 14 дней   |    Скачан:  0 раз

Полного источника не было: Никогда

 
   
 
 
 

[Цитировать]

·
·
·
Johannes Brahms
(1833–1897)
Жанр: Chamber Music
Носитель: Official Digital Download
Год переиздания диска: 2012 © EMI Records Ltd
Номер по каталогу: ASD 2436 © His Master's Voice
Продолжительность: 54:22
Наличие сканов в содержимом раздачи: cover art
Контейнер: FLAC (*.flac)
Разрядность: 24/96
Количество каналов: 2.0
Формат: tracks
Источник: HDtracks
Pелизер: WEB (thanks to the original customer)

Треклист & Исполнители

Cello Sonata No.1 in E Minor Op. 3801 I. Allegro Non Troppo 12:15
02 II. Allegretto Quasi Menuetto & Trio 5:50
03 III. Allegro 6:49
Cello Sonata No. 2 in F major Op. 99
04 I. Allegro Vivace 8:54
05 II. Adagio Affettuoso 7:26
06 III. Allegro Passionato 7:37
07 IV. Allegro Molto 4:40
Jacqueline Du Pré cello
Daniel Barenboim piano

Dynamic Range Meter

foobar2000 1.3.8 / Dynamic Range Meter 1.1.1
log date: 2015-09-15 19:48:46
--------------------------------------------------------------------------------
Analyzed: Jacqueline du Pré, Daniel Barenboim / Brahms: Cello Sonatas 1 & 2
--------------------------------------------------------------------------------
DR Peak RMS Duration Track
--------------------------------------------------------------------------------
DR15 -1.93 dB -23.60 dB 12:28 01-Cello Sonata No.1 in E Minor, Op.38 - I. Allegro non troppo
DR13 -7.36 dB -25.86 dB 5:54 02-Cello Sonata No.1 in E Minor, Op.38 - II. Allegretto quasi Menuetto & Trio
DR13 -3.25 dB -20.79 dB 7:06 03-Cello Sonata No.1 in E Minor, Op.38 - III. Allegro
DR12 -2.37 dB -19.00 dB 9:03 04-Cello Sonata No.2 in F Major, Op.99 - I. Allegro vivace
DR17 -3.56 dB -26.37 dB 7:32 05-Cello Sonata No.2 in F Major, Op.99 - II. Adagio affettuoso
DR13 -2.04 dB -20.08 dB 7:42 06-Cello Sonata No.2 in F Major, Op.99 - III. Allegro passionato
DR13 -2.69 dB -19.99 dB 4:40 07-Cello Sonata No.2 in F Major, Op.99 - IV. Allegro molto
--------------------------------------------------------------------------------
Number of tracks: 7
Official DR value: DR14
Samplerate: 96000 Hz
Channels: 2
Bits per sample: 24
Bitrate: 2668 kbps
Codec: FLAC
================================================================================
[teatrix.ru].t22365.torrent 
Торрент: Зарегистрирован [ 2016-03-20 12:36 ] · 1F1D62832BC3B84CDE365225594A3F2F306F1675

Скачать .torrent

Скачать

11 KB

Статус: проверено
Скачан: 0 раз
Размер: 1 GB
terms.php



Быстрый ответ

Имя:

      
Для отправки сообщений необходимо включить JavaScript
Показать сообщения:    

Текущее время: 04-Дек 02:52

Часовой пояс: UTC + 3


Вы можете начинать темы
Вы можете отвечать на сообщения
Вы не можете редактировать свои сообщения
Вы не можете удалять свои сообщения
Вы не можете голосовать в опросах
Вы не можете прикреплять файлы к сообщениям
Вы можете скачивать файлы