[TR24][SM][OF] Antonin Dvorak - Cello Concerto in B Minor • "Silent Woods" Adagio for Cello & Orchestra - Jacqueline du Pre, Daniel Barenboim & Chicago Symphony Orchestra - 1971 (Classical)


Статистика раздачи [Обновить пиров]
Размер:  1019 MB   |    Зарегистрирован:  8 месяцев 18 дней   |    Скачан:  0 раз

Полного источника не было: Никогда

 
   
 
 
 

[Цитировать]

·
·
·

Antonín Leopold Dvořák
(1841-1904)
Жанр: Concerto
Носитель: Official Digital Download
Год переиздания диска: 2012 © EMI Records Ltd
Номер по каталогу: ASD 2751 © His Master's Voice
Продолжительность: 49:06
Наличие сканов в содержимом раздачи: cover art
Контейнер: FLAC (*.flac)
Разрядность: 24/96
Количество каналов: 2.0
Формат: tracks
Источник: HDtracks
Pелизер: WEB (thanks to the original customer)

Треклист & Исполнители

Cello Concerto in B Minor Op.10401 I. Allegro 15:28
02 II. Adagio ma non troppo 13:18
03 III. Finale (Allegro moderato) 13:34
04 "Silent Woods" Op.68/5 06:46
Jacqueline du Pré cello
Daniel Barenboim & Chicago Symphony Orchestra

Dynamic Range Meter

foobar2000 1.2.6 / Dynamic Range Meter 1.1.1
log date: 2015-09-19 11:22:45
--------------------------------------------------------------------------------
Analyzed: Jacqueline du Pre/Chicago Symphony Orchestra/Daniel Barenboim / [HD EMI] Dvorak: Cello Concerto - Silent Woods (2011 - Remaster)
--------------------------------------------------------------------------------
DR Peak RMS Duration Track
--------------------------------------------------------------------------------
DR12 -0.97 dB -18.12 dB 15:29 01-Cello Concerto in B Minor, B.191, Op.104: I. Allegro
DR12 -2.69 dB -20.63 dB 13:18 02-Cello Concerto in B Minor, B.191, Op.104: II. Adagio ma non troppo
DR13 -0.39 dB -18.47 dB 13:34 03-Cello Concerto in B Minor, B.191, Op.104: III. Finale (Allegro moderato)
DR12 -2.72 dB -20.23 dB 6:47 04-Silent woods, B.173, Op.68/5
--------------------------------------------------------------------------------
Number of tracks: 4
Official DR value: DR12
Samplerate: 96000 Hz
Channels: 2
Bits per sample: 24
Bitrate: 2908 kbps
Codec: FLAC
================================================================================
[teatrix.ru].t22366.torrent 
Торрент: Зарегистрирован [ 2016-03-20 12:36 ] · E43C8A5639531A3C1A76CB63F3A75F3F9AA87749

Скачать .torrent

Скачать

21 KB

Статус: проверено
Скачан: 0 раз
Размер: 1019 MB
terms.php



Быстрый ответ

Имя:

      
Для отправки сообщений необходимо включить JavaScript
Показать сообщения:    

Текущее время: 07-Дек 21:24

Часовой пояс: UTC + 3


Вы можете начинать темы
Вы можете отвечать на сообщения
Вы не можете редактировать свои сообщения
Вы не можете удалять свои сообщения
Вы не можете голосовать в опросах
Вы не можете прикреплять файлы к сообщениям
Вы можете скачивать файлы