Жюль Массне - Вертер (Йонас Кауфманн) / Jules Massenet - Werther (Jonas Kaufmann, Sophie Koch, Ludovic Tezier) Мишель Плассон / Michel Plasson (Benoit Jacquot) [2010, Opera, HDRip-AVC 720p] Sub [Русские] [Eng, Ger, Fre, Esp.]


 

[Цитировать]

-Парижская Опера представляет
ЖЮЛЬ Эмиль Фредерик М А С С Н Е
12 мая (May 12,) 1842— 13 августа (August 13,) 1913
»«В Е Р Т Е Р»«
Французское либретто Эдуара Бло, Поля Милье и Жоржа Артмана
по мотивам романа Гёте «Страдания юного Вертера» (1774)
-- РЕЖИССЁР Бенуа ЖАКО Benoît Jacquot
Год записи: 2010
Год выхода: 2014
Язык: Французский
Субтитры/Subtitles: РУССКИЕ,
English, French, German, Espanol
Продолжительность: 161 min.
ВЕРТЕР Йонас КАУФМАНН Jonas Kaufmann
ШАРЛОТТА Софи КОШ Sophie Koch
АЛЬБЕРТ Людовик ТЕЗЬЕ Ludovic Tézier
СОФИЯ Анна-Катрин ЖИЛЛЕ Anne-Catherine Gillet
СУДЬЯ Ален ВЕРН Alain Vernhes
ЙОГАН Кристиан ТРЕГЬЕ Christian Treguier
ШМИДТ Андреас ЖАГГИ Andreas Jaggi
ХОР и ОРКЕСТР Парижской Оперы
ДИРИЖЁР Мишель ПЛАССОН Michel Plasson

Качество видео: HDRip-AVC
Исходник: BDRip 1080 by Vilboa
♫ Sample ♫
Формат/Контейнер: MKV
Видео кодек: H.264
Аудио кодек: DTS
Видео поток: 1280x720, 4000 kbps, 29,970 fps.
Аудио поток: Français, 1509 kbps, 48,0 KHz, 24 bit, 2 ch
Навигация по главам: Есть

Скриншоты

MediaInfo

-

x264 log


avs [info]: 1280x720p 1:1 @ 30000/1001 fps (cfr)
x264 [info]: using SAR=1/1
x264 [info]: using cpu capabilities: MMX2 SSE2Fast LZCNT
x264 [info]: profile High, level 4.1
x264 [info]: frame I:1852 Avg QP:13.72 size: 66177
x264 [info]: frame P:179700 Avg QP:15.52 size: 22130
x264 [info]: frame B:109682 Avg QP:17.45 size: 6926
x264 [info]: consecutive B-frames: 38.2% 33.4% 3.7% 24.6%
x264 [info]: mb I I16..4: 11.9% 74.8% 13.3%
x264 [info]: mb P I16..4: 4.0% 11.7% 1.3% P16..4: 39.1% 22.1% 10.3% 0.0% 0.0% skip:11.5%
x264 [info]: mb B I16..4: 0.4% 0.7% 0.1% B16..8: 39.9% 8.7% 1.7% direct: 4.7% skip:43.7% L0:41.8% L1:50.5% BI: 7.6%
x264 [info]: 8x8 transform intra:69.0% inter:73.6%
x264 [info]: direct mvs spatial:90.1% temporal:9.9%
x264 [info]: coded y,uvDC,uvAC intra: 47.8% 62.0% 22.2% inter: 24.5% 31.9% 1.1%
x264 [info]: i16 v,h,dc,p: 45% 24% 14% 17%
x264 [info]: i8 v,h,dc,ddl,ddr,vr,hd,vl,hu: 12% 7% 30% 8% 9% 10% 8% 9% 8%
x264 [info]: i4 v,h,dc,ddl,ddr,vr,hd,vl,hu: 17% 9% 22% 8% 11% 10% 8% 8% 7%
x264 [info]: i8c dc,h,v,p: 57% 20% 17% 6%
x264 [info]: Weighted P-Frames: Y:1.2% UV:0.5%
x264 [info]: ref P L0: 63.1% 5.0% 20.1% 11.7% 0.1%
x264 [info]: ref B L0: 83.5% 14.8% 1.7%
x264 [info]: ref B L1: 96.5% 3.5%
x264 [info]: kb/s:4000.15
encoded 291234 frames, 8.97 fps, 4000.15 kb/s
Final statistics
-
General
Unique ID : 229387280377635260839488766976748496193 (0xAC92621A517570C3B5ED037D81452541)
Complete name : Massenet - Werther (Kaufmann) Paris 2010.mkv
Format : Matroska
Format version : Version 4 / Version 2
File size : 6.25 GiB
Duration : 2h 41mn
Overall bit rate : 5 521 Kbps
Encoded date : UTC 2015-09-27 09:54:31
Writing application : mkvmerge v8.3.0 ('Over the Horizon') 32bit
Writing library : libebml v1.3.1 + libmatroska v1.4.2
Video
ID : 1
Format : AVC
Format/Info : Advanced Video Codec
Format profile : High@L4.1
Format settings, CABAC : Yes
Format settings, ReFrames : 4 frames
Codec ID : V_MPEG4/ISO/AVC
Duration : 2h 41mn
Bit rate : 4 000 Kbps
Width : 1 280 pixels
Height : 720 pixels
Display aspect ratio : 16:9
Frame rate mode : Constant
Frame rate : 29.970 fps
Color space : YUV
Chroma subsampling : 4:2:0
Bit depth : 8 bits
Scan type : Progressive
Bits/(Pixel*Frame) : 0.145
Stream size : 4.41 GiB (71%)
Writing library : x264 core 146 r2538 121396c
Encoding settings : cabac=1 / ref=3 / deblock=1:0:0 / analyse=0x3:0x113 / me=umh / subme=9 / psy=1 / psy_rd=1.00:0.00 / mixed_ref=1 / me_range=32 / chroma_me=1 / trellis=1 / 8x8dct=1 / cqm=0 / deadzone=21,11 / fast_pskip=1 / chroma_qp_offset=-2 / threads=4 / lookahead_threads=1 / sliced_threads=0 / nr=0 / decimate=1 / interlaced=0 / bluray_compat=0 / constrained_intra=0 / bframes=3 / b_pyramid=2 / b_adapt=1 / b_bias=0 / direct=3 / weightb=1 / open_gop=0 / weightp=2 / keyint=300 / keyint_min=29 / scenecut=40 / intra_refresh=0 / rc_lookahead=60 / rc=2pass / mbtree=1 / bitrate=4000 / ratetol=1.0 / qcomp=0.60 / qpmin=10 / qpmax=51 / qpstep=4 / cplxblur=20.0 / qblur=0.5 / vbv_maxrate=50000 / vbv_bufsize=62500 / nal_hrd=none / filler=0 / ip_ratio=1.40 / aq=1:1.00
Language : English
Default : Yes
Forced : No
Audio
ID : 2
Format : DTS
Format/Info : Digital Theater Systems
Mode : 16
Format settings, Endianness : Big
Codec ID : A_DTS
Duration : 2h 41mn
Bit rate mode : Constant
Bit rate : 1 509 Kbps
Channel(s) : 5 channels
Channel positions : Front: L C R, Side: L R
Sampling rate : 48.0 KHz
Bit depth : 24 bits
Compression mode : Lossy
Stream size : 1.71 GiB (27%)
Language : French
Default : Yes
Forced : No
Text #1
ID : 3
Format : VobSub
Muxing mode : zlib
Codec ID : S_VOBSUB
Codec ID/Info : Picture based subtitle format used on DVDs
Language : Russian
Default : Yes
Forced : No
Text #2
ID : 4
Format : VobSub
Muxing mode : zlib
Codec ID : S_VOBSUB
Codec ID/Info : Picture based subtitle format used on DVDs
Language : English
Default : No
Forced : No
Text #3
ID : 5
Format : VobSub
Muxing mode : zlib
Codec ID : S_VOBSUB
Codec ID/Info : Picture based subtitle format used on DVDs
Language : French
Default : No
Forced : No
Text #4
ID : 6
Format : VobSub
Muxing mode : zlib
Codec ID : S_VOBSUB
Codec ID/Info : Picture based subtitle format used on DVDs
Language : German
Default : No
Forced : No
Text #5
ID : 7
Format : VobSub
Muxing mode : zlib
Codec ID : S_VOBSUB
Codec ID/Info : Picture based subtitle format used on DVDs
Language : Spanish
Default : No
Forced : No
Menu
00:01:13.520 : fr:Prelude
00:06:26.920 : fr:Premier Acte
00:49:53.132 : fr:Deuxième Acte
01:28:58.209 : fr:Troisième Acte
02:18:06.043 : fr:Quatrième Acte



Показать сообщения:    

Текущее время: 08-Дек 07:08

Часовой пояс: UTC + 3


Вы не можете начинать темы
Вы не можете отвечать на сообщения
Вы не можете редактировать свои сообщения
Вы не можете удалять свои сообщения
Вы не можете голосовать в опросах
Вы не можете прикреплять файлы к сообщениям
Вы не можете скачивать файлы