(Opera) Giacomo Puccini - Madama Butterfly / Джакомо Пуччини - Мадам Баттерфляй (Gabriele Santini; Victoria de los Angeles, Miriam Pirazzini, Jussi Bjorling, Mario Sereni, Piero De Palma), 1959 - Studio recording, FLAC (tracks+.cue), lossless


 

[Цитировать]

Giacomo Puccini - Madama Butterfly / Джакомо Пуччини - Мадам Баттерфляй (Gabriele Santini; Victoria de los Ángeles, Miriam Pirazzini, Jussi Björling, Mario Sereni, Piero De Palma)
Жанр: Opera
Страна-производитель диска: CША
Год издания диска: 1990
Издатель (лейбл): EMI Classics
Дата записи: 1959
Аудиокодек: FLAC
Тип рипа: tracks+.cue
Битрейт аудио: lossless
Продолжительность: 136:39
Источник: релизер (Guillermo)
Исполнители:
Cio Cio San - Victoria de los Ángeles,
Suzuki - Miriam Pirazzini,
Pinkerton - Jussi Björling,
Sharpless - Mario Sereni,
Kate Pinkerton - Silvia Bertona,
Goro - Piero De Palma,
Il principe Yamadori - Arturo La Porta,
Lo zio Bonzo - Paolo Montarsolo,
Il commissario imperiale - Antonio Sacchetti,
Yakusidè - Bonaldo Giaiotti,
L'ufficiale del Registro - Paolo Caroli,
La madre di Cio Cio San - Vera Magrini,
La zia - Nina De Courson,
La cugina - Silvia Bertona.
Conductor - Gabriele Santini,
Orchestra and Chorus of Teatro dell'Opera di Roma.
Recorded at Rome Opera House, September and October 1959.

Лог создания рипаЛог создания рипа CD 1

Exact Audio Copy V1.0 beta 3 from 29. August 2011
EAC extraction logfile from 8. September 2015, 8:55
Giacomo Puccini / Madama Butterfly (Disk 1 of 2)
Used drive : HL-DT-STDVDRAM GH24NSC0 Adapter: 3 ID: 0
Read mode : Secure
Utilize accurate stream : Yes
Defeat audio cache : Yes
Make use of C2 pointers : No
Read offset correction : 6
Overread into Lead-In and Lead-Out : No
Fill up missing offset samples with silence : Yes
Delete leading and trailing silent blocks : No
Null samples used in CRC calculations : Yes
Used interface : Native Win32 interface for Win NT & 2000
Gap handling : Appended to previous track
Used output format : User Defined Encoder
Selected bitrate : 768 kBit/s
Quality : High
Add ID3 tag : No
Command line compressor : C:\Program Files (x86)\Exact Audio Copy\FLAC\FLAC.EXE
Additional command line options : -8 -V -T "ARTIST=%artist%" -T "TITLE=%title%" -T "ALBUM=%albumtitle%" -T "DATE=%year%" -T "TRACKNUMBER=%tracknr%" -T "GENRE=%genre%" -T "PERFORMER=%albuminterpret%" -T "COMPOSER=%composer%" %haslyrics%--tag-from-file=LYRICS="%lyricsfile%"%haslyrics% -T "ALBUMARTIST=%albumartist%" -T "DISCNUMBER=%cdnumber%" -T "TOTALDISCS=%totalcds%" -T "TOTALTRACKS=%numtracks%" -T "COMMENT=%comment%" %source% -o %dest%
TOC of the extracted CD
Track | Start | Length | Start sector | End sector
---------------------------------------------------------
1 | 0:00.33 | 2:11.30 | 33 | 9887
2 | 2:11.63 | 4:11.70 | 9888 | 28782
3 | 6:23.58 | 3:36.37 | 28783 | 45019
4 | 10:00.20 | 3:58.68 | 45020 | 62937
5 | 13:59.13 | 2:58.70 | 62938 | 76357
6 | 16:58.08 | 3:34.00 | 76358 | 92407
7 | 20:32.08 | 3:04.37 | 92408 | 106244
8 | 23:36.45 | 2:53.30 | 106245 | 119249
9 | 26:30.00 | 4:51.35 | 119250 | 141109
10 | 31:21.35 | 5:34.50 | 141110 | 166209
11 | 36:56.10 | 3:35.40 | 166210 | 182374
12 | 40:31.50 | 4:07.55 | 182375 | 200954
13 | 44:39.30 | 7:21.40 | 200955 | 234069
14 | 52:00.70 | 7:06.63 | 234070 | 266082
15 | 59:07.58 | 4:37.57 | 266083 | 286914
16 | 63:45.40 | 3:27.58 | 286915 | 302497
17 | 67:13.23 | 5:15.22 | 302498 | 326144
18 | 72:28.45 | 3:17.73 | 326145 | 340992
Track 1
Filename f:\Users\Guillermo\Desktop\EAC convertidos\01 E Soffitto...E Pareti....wav
Pre-gap length 0:00:02.44
Peak level 44.5 %
Extraction speed 1.4 X
Track quality 100.0 %
Test CRC 5CC08CC3
Copy CRC 5CC08CC3
Copy OK
Track 2
Filename f:\Users\Guillermo\Desktop\EAC convertidos\02 Questa E La Cameriera.wav
Pre-gap length 0:00:02.00
Peak level 52.1 %
Extraction speed 1.8 X
Track quality 100.0 %
Test CRC BC89DE89
Copy CRC BC89DE89
Copy OK
Track 3
Filename f:\Users\Guillermo\Desktop\EAC convertidos\03 Dovunque Al Mondo.wav
Pre-gap length 0:00:02.00
Peak level 58.2 %
Extraction speed 1.9 X
Track quality 100.0 %
Test CRC 26E17FE6
Copy CRC 26E17FE6
Copy OK
Track 4
Filename f:\Users\Guillermo\Desktop\EAC convertidos\04 Quale Smania Vi Prende!.wav
Pre-gap length 0:00:02.00
Peak level 57.4 %
Extraction speed 2.0 X
Track quality 100.0 %
Test CRC 691E39A6
Copy CRC 691E39A6
Copy OK
Track 5
Filename f:\Users\Guillermo\Desktop\EAC convertidos\05 Quanto Cielo!... Ancora Un Passo Or Via.wav
Pre-gap length 0:00:02.00
Peak level 41.1 %
Extraction speed 2.0 X
Track quality 100.0 %
Test CRC 83DB3F8A
Copy CRC 83DB3F8A
Copy OK
Track 6
Filename f:\Users\Guillermo\Desktop\EAC convertidos\06 Gran Ventura.wav
Pre-gap length 0:00:02.00
Peak level 45.1 %
Extraction speed 2.2 X
Track quality 100.0 %
Test CRC CB4F19E7
Copy CRC CB4F19E7
Copy OK
Track 7
Filename f:\Users\Guillermo\Desktop\EAC convertidos\07 L'Imperial Commissario.wav
Pre-gap length 0:00:02.00
Peak level 71.2 %
Extraction speed 1.8 X
Track quality 99.8 %
Test CRC 84DD0060
Copy CRC 84DD0060
Copy OK
Track 8
Filename f:\Users\Guillermo\Desktop\EAC convertidos\08 Vieni, Amor Mio!.wav
Pre-gap length 0:00:02.00
Peak level 47.4 %
Extraction speed 2.3 X
Track quality 100.0 %
Test CRC 021D2233
Copy CRC 021D2233
Copy OK
Track 9
Filename f:\Users\Guillermo\Desktop\EAC convertidos\09 Leri Son Salita Tuttq Sola.wav
Pre-gap length 0:00:02.00
Peak level 42.0 %
Extraction speed 2.6 X
Track quality 100.0 %
Test CRC 0BD36C3C
Copy CRC 0BD36C3C
Copy OK
Track 10
Filename f:\Users\Guillermo\Desktop\EAC convertidos\10 Ed Eccoci In Famiglia.wav
Pre-gap length 0:00:02.00
Peak level 84.3 %
Extraction speed 2.8 X
Track quality 100.0 %
Test CRC 3FD8537B
Copy CRC 3FD8537B
Copy OK
Track 11
Filename f:\Users\Guillermo\Desktop\EAC convertidos\11 Viene La Sera.wav
Pre-gap length 0:00:02.00
Peak level 66.0 %
Extraction speed 2.7 X
Track quality 100.0 %
Test CRC 10A93BBE
Copy CRC 10A93BBE
Copy OK
Track 12
Filename f:\Users\Guillermo\Desktop\EAC convertidos\12 Bimba Dagli Occhi Pieni Di Malia.wav
Pre-gap length 0:00:02.00
Peak level 71.3 %
Extraction speed 2.9 X
Track quality 100.0 %
Test CRC EA3F78A0
Copy CRC EA3F78A0
Copy OK
Track 13
Filename f:\Users\Guillermo\Desktop\EAC convertidos\13 Vogliatemi Bene, Un Bene Piccolino.wav
Pre-gap length 0:00:02.00
Peak level 82.0 %
Extraction speed 3.3 X
Track quality 100.0 %
Test CRC BD454FE7
Copy CRC BD454FE7
Copy OK
Track 14
Filename f:\Users\Guillermo\Desktop\EAC convertidos\14 E Lzaghi Ed Lzanami.wav
Pre-gap length 0:00:02.00
Peak level 61.7 %
Extraction speed 3.5 X
Track quality 100.0 %
Test CRC 2CE9F03B
Copy CRC 2CE9F03B
Copy OK
Track 15
Filename f:\Users\Guillermo\Desktop\EAC convertidos\15 Un Bel Di Vedremo.wav
Pre-gap length 0:00:02.00
Peak level 69.2 %
Extraction speed 3.4 X
Track quality 100.0 %
Test CRC D485B1BD
Copy CRC D485B1BD
Copy OK
Track 16
Filename f:\Users\Guillermo\Desktop\EAC convertidos\16 C'e. Entrate.wav
Pre-gap length 0:00:02.00
Peak level 35.6 %
Extraction speed 2.7 X
Track quality 99.8 %
Test CRC 40F1AB50
Copy CRC 40F1AB50
Copy OK
Track 17
Filename f:\Users\Guillermo\Desktop\EAC convertidos\17 Non Lo Sapete Insomnia.wav
Pre-gap length 0:00:02.00
Peak level 54.0 %
Extraction speed 3.6 X
Track quality 100.0 %
Test CRC 2DE4736D
Copy CRC 2DE4736D
Copy OK
Track 18
Filename f:\Users\Guillermo\Desktop\EAC convertidos\18 Ora A Noi.wav
Pre-gap length 0:00:02.00
Peak level 35.1 %
Extraction speed 3.4 X
Track quality 100.0 %
Test CRC 8839762A
Copy CRC 8839762A
Copy OK
No errors occurred
End of status report
==== Log checksum 0EC7053CB6AA788D50F9024F907ABFAEC26E6B2A63703E4DB82758528F0E6E8E ====

Лог создания рипа CD 2

Exact Audio Copy V1.0 beta 3 from 29. August 2011
EAC extraction logfile from 8. September 2015, 13:58
Giacomo Puccini / Madama Butterfly (Disk 2 of 2)
Used drive : HL-DT-STDVDRAM GH24NSC0 Adapter: 3 ID: 0
Read mode : Secure
Utilize accurate stream : Yes
Defeat audio cache : Yes
Make use of C2 pointers : No
Read offset correction : 6
Overread into Lead-In and Lead-Out : No
Fill up missing offset samples with silence : Yes
Delete leading and trailing silent blocks : No
Null samples used in CRC calculations : Yes
Used interface : Native Win32 interface for Win NT & 2000
Gap handling : Appended to previous track
Used output format : User Defined Encoder
Selected bitrate : 768 kBit/s
Quality : High
Add ID3 tag : No
Command line compressor : C:\Program Files (x86)\Exact Audio Copy\FLAC\FLAC.EXE
Additional command line options : -8 -V -T "ARTIST=%artist%" -T "TITLE=%title%" -T "ALBUM=%albumtitle%" -T "DATE=%year%" -T "TRACKNUMBER=%tracknr%" -T "GENRE=%genre%" -T "PERFORMER=%albuminterpret%" -T "COMPOSER=%composer%" %haslyrics%--tag-from-file=LYRICS="%lyricsfile%"%haslyrics% -T "ALBUMARTIST=%albumartist%" -T "DISCNUMBER=%cdnumber%" -T "TOTALDISCS=%totalcds%" -T "TOTALTRACKS=%numtracks%" -T "COMMENT=%comment%" %source% -o %dest%
TOC of the extracted CD
Track | Start | Length | Start sector | End sector
---------------------------------------------------------
1 | 0:00.33 | 2:39.35 | 33 | 11992
2 | 2:39.68 | 2:07.37 | 11993 | 21554
3 | 4:47.30 | 2:43.10 | 21555 | 33789
4 | 7:30.40 | 1:44.43 | 33790 | 41632
5 | 9:15.08 | 1:53.47 | 41633 | 50154
6 | 11:08.55 | 2:29.55 | 50155 | 61384
7 | 13:38.35 | 4:48.73 | 61385 | 83057
8 | 18:27.33 | 5:44.07 | 83058 | 108864
9 | 24:11.40 | 3:11.40 | 108865 | 123229
10 | 27:23.05 | 8:06.65 | 123230 | 159744
11 | 35:29.70 | 1:59.43 | 159745 | 168712
12 | 37:29.38 | 2:45.45 | 168713 | 181132
13 | 40:15.08 | 3:35.47 | 181133 | 197304
14 | 43:50.55 | 1:42.63 | 197305 | 205017
15 | 45:33.43 | 2:10.30 | 205018 | 214797
16 | 47:43.73 | 5:35.52 | 214798 | 239974
17 | 53:19.50 | 2:55.45 | 239975 | 253144
18 | 56:15.20 | 4:59.55 | 253145 | 275624
Track 1
Filename f:\Users\Guillermo\Desktop\EAC convertidos\01 Ebbene, che fareste.wav
Pre-gap length 0:00:02.44
Peak level 44.8 %
Extraction speed 1.5 X
Track quality 100.0 %
Test CRC F0CC8766
Copy CRC F0CC8766
Copy OK
Track 2
Filename f:\Users\Guillermo\Desktop\EAC convertidos\02 E questo e questo.wav
Pre-gap length 0:00:02.00
Peak level 72.0 %
Extraction speed 1.5 X
Track quality 100.0 %
Test CRC D886F698
Copy CRC D886F698
Copy OK
Track 3
Filename f:\Users\Guillermo\Desktop\EAC convertidos\03 Che tua madre dovra.wav
Pre-gap length 0:00:02.00
Peak level 54.1 %
Extraction speed 1.3 X
Track quality 99.8 %
Test CRC 6B3C0E7D
Copy CRC 6B3C0E7D
Copy OK
Track 4
Filename f:\Users\Guillermo\Desktop\EAC convertidos\04 lo scendo al piano.wav
Pre-gap length 0:00:02.00
Peak level 53.7 %
Extraction speed 1.5 X
Track quality 100.0 %
Test CRC 931C79A8
Copy CRC 931C79A8
Copy OK
Track 5
Filename f:\Users\Guillermo\Desktop\EAC convertidos\05 Vespa! Rospo maledetto!.wav
Pre-gap length 0:00:02.00
Peak level 75.7 %
Extraction speed 1.6 X
Track quality 100.0 %
Test CRC F249A58B
Copy CRC F249A58B
Copy OK
Track 6
Filename f:\Users\Guillermo\Desktop\EAC convertidos\06 Una nave da guerra....wav
Pre-gap length 0:00:02.00
Peak level 72.4 %
Extraction speed 1.8 X
Track quality 100.0 %
Test CRC 9823E0CD
Copy CRC 9823E0CD
Copy OK
Track 7
Filename f:\Users\Guillermo\Desktop\EAC convertidos\07 Scuoti quella fronda di ciliegio.wav
Pre-gap length 0:00:02.00
Peak level 60.0 %
Extraction speed 2.2 X
Track quality 100.0 %
Test CRC 7F1631FF
Copy CRC 7F1631FF
Copy OK
Track 8
Filename f:\Users\Guillermo\Desktop\EAC convertidos\08 Or vienmi ad adornar.wav
Pre-gap length 0:00:02.00
Peak level 53.9 %
Extraction speed 2.5 X
Track quality 100.0 %
Test CRC D504E097
Copy CRC D504E097
Copy OK
Track 9
Filename f:\Users\Guillermo\Desktop\EAC convertidos\09 Coro a bocca chiasu.wav
Pre-gap length 0:00:02.00
Peak level 7.6 %
Extraction speed 1.9 X
Track quality 99.8 %
Test CRC B1A32F76
Copy CRC B1A32F76
Copy OK
Track 10
Filename f:\Users\Guillermo\Desktop\EAC convertidos\10 Oh eh! Oh eh! Oh eh!.wav
Pre-gap length 0:00:02.00
Peak level 72.6 %
Extraction speed 2.9 X
Track quality 100.0 %
Test CRC FE5FDEC9
Copy CRC FE5FDEC9
Copy OK
Track 11
Filename f:\Users\Guillermo\Desktop\EAC convertidos\11 Gia il sole!.wav
Pre-gap length 0:00:02.00
Peak level 18.4 %
Extraction speed 2.3 X
Track quality 100.0 %
Test CRC 4E78E0C6
Copy CRC 4E78E0C6
Copy OK
Track 12
Filename f:\Users\Guillermo\Desktop\EAC convertidos\12 Povera Butterfly.wav
Pre-gap length 0:00:02.00
Peak level 52.3 %
Extraction speed 2.6 X
Track quality 100.0 %
Test CRC C3161DB5
Copy CRC C3161DB5
Copy OK
Track 13
Filename f:\Users\Guillermo\Desktop\EAC convertidos\13 lo so che alle sue pene.wav
Pre-gap length 0:00:02.00
Peak level 65.1 %
Extraction speed 2.8 X
Track quality 100.0 %
Test CRC 12DC9F34
Copy CRC 12DC9F34
Copy OK
Track 14
Filename f:\Users\Guillermo\Desktop\EAC convertidos\14 Addio, fiorito asil.wav
Pre-gap length 0:00:02.00
Peak level 45.8 %
Extraction speed 2.3 X
Track quality 100.0 %
Test CRC 10CFD678
Copy CRC 10CFD678
Copy OK
Track 15
Filename f:\Users\Guillermo\Desktop\EAC convertidos\15 Glielo dirai.wav
Pre-gap length 0:00:02.00
Peak level 60.8 %
Extraction speed 2.6 X
Track quality 100.0 %
Test CRC 301C6061
Copy CRC 301C6061
Copy OK
Track 16
Filename f:\Users\Guillermo\Desktop\EAC convertidos\16 Che vuol da me.wav
Pre-gap length 0:00:02.00
Peak level 42.8 %
Extraction speed 3.3 X
Track quality 100.0 %
Test CRC EC76A5F6
Copy CRC EC76A5F6
Copy OK
Track 17
Filename f:\Users\Guillermo\Desktop\EAC convertidos\17 Come una mosca prigioniera.wav
Pre-gap length 0:00:02.00
Peak level 58.4 %
Extraction speed 2.4 X
Track quality 99.8 %
Test CRC 7B8FFDD4
Copy CRC 7B8FFDD4
Copy OK
Track 18
Filename f:\Users\Guillermo\Desktop\EAC convertidos\18 Con onor muore.wav
Pre-gap length 0:00:02.00
Peak level 94.9 %
Extraction speed 3.4 X
Track quality 100.0 %
Test CRC A40E344F
Copy CRC A40E344F
Copy OK
No errors occurred
End of status report
==== Log checksum A122E2359D118AA6EBC0FE6B29D3D6EE54329AADD316CF0245BDECE9301F9A96 ====

Содержание индексной карты (.CUE)Содержание индексной карты (.CUE) CD 1

REM GENRE Oper/Operette
REM DISCID E111C212
REM COMMENT "ExactAudioCopy v1.0b3"
FILE "01 E Soffitto...E Pareti....wav" WAVE
TRACK 01 AUDIO
PREGAP 00:00:33
INDEX 01 00:00:00
TRACK 02 AUDIO
INDEX 00 02:09:30
FILE "02 Questa E La Cameriera.wav" WAVE
INDEX 01 00:00:00
TRACK 03 AUDIO
INDEX 00 04:09:70
FILE "03 Dovunque Al Mondo.wav" WAVE
INDEX 01 00:00:00
TRACK 04 AUDIO
INDEX 00 03:34:37
FILE "04 Quale Smania Vi Prende!.wav" WAVE
INDEX 01 00:00:00
TRACK 05 AUDIO
INDEX 00 03:56:68
FILE "05 Quanto Cielo!... Ancora Un Passo Or Via.wav" WAVE
INDEX 01 00:00:00
TRACK 06 AUDIO
INDEX 00 02:56:70
FILE "06 Gran Ventura.wav" WAVE
INDEX 01 00:00:00
TRACK 07 AUDIO
INDEX 00 03:32:00
FILE "07 L'Imperial Commissario.wav" WAVE
INDEX 01 00:00:00
TRACK 08 AUDIO
INDEX 00 03:02:37
FILE "08 Vieni, Amor Mio!.wav" WAVE
INDEX 01 00:00:00
TRACK 09 AUDIO
INDEX 00 02:51:30
FILE "09 Leri Son Salita Tuttq Sola.wav" WAVE
INDEX 01 00:00:00
TRACK 10 AUDIO
INDEX 00 04:49:35
FILE "10 Ed Eccoci In Famiglia.wav" WAVE
INDEX 01 00:00:00
TRACK 11 AUDIO
INDEX 00 05:32:50
FILE "11 Viene La Sera.wav" WAVE
INDEX 01 00:00:00
TRACK 12 AUDIO
INDEX 00 03:33:40
FILE "12 Bimba Dagli Occhi Pieni Di Malia.wav" WAVE
INDEX 01 00:00:00
TRACK 13 AUDIO
INDEX 00 04:05:55
FILE "13 Vogliatemi Bene, Un Bene Piccolino.wav" WAVE
INDEX 01 00:00:00
TRACK 14 AUDIO
INDEX 00 07:19:40
FILE "14 E Lzaghi Ed Lzanami.wav" WAVE
INDEX 01 00:00:00
TRACK 15 AUDIO
INDEX 00 07:04:63
FILE "15 Un Bel Di Vedremo.wav" WAVE
INDEX 01 00:00:00
TRACK 16 AUDIO
INDEX 00 04:35:57
FILE "16 C'e. Entrate.wav" WAVE
INDEX 01 00:00:00
TRACK 17 AUDIO
INDEX 00 03:25:58
FILE "17 Non Lo Sapete Insomnia.wav" WAVE
INDEX 01 00:00:00
TRACK 18 AUDIO
INDEX 00 05:13:22
FILE "18 Ora A Noi.wav" WAVE
INDEX 01 00:00:00

Содержание индексной карты (.CUE) CD 2

REM DISCID E40E5B12
REM COMMENT "ExactAudioCopy v1.0b3"
FILE "01 Ebbene, che fareste.wav" WAVE
TRACK 01 AUDIO
PREGAP 00:00:33
INDEX 01 00:00:00
TRACK 02 AUDIO
INDEX 00 02:37:35
FILE "02 E questo e questo.wav" WAVE
INDEX 01 00:00:00
TRACK 03 AUDIO
INDEX 00 02:05:37
FILE "03 Che tua madre dovra.wav" WAVE
INDEX 01 00:00:00
TRACK 04 AUDIO
INDEX 00 02:41:10
FILE "04 lo scendo al piano.wav" WAVE
INDEX 01 00:00:00
TRACK 05 AUDIO
INDEX 00 01:42:43
FILE "05 Vespa! Rospo maledetto!.wav" WAVE
INDEX 01 00:00:00
TRACK 06 AUDIO
INDEX 00 01:51:47
FILE "06 Una nave da guerra....wav" WAVE
INDEX 01 00:00:00
TRACK 07 AUDIO
INDEX 00 02:27:55
FILE "07 Scuoti quella fronda di ciliegio.wav" WAVE
INDEX 01 00:00:00
TRACK 08 AUDIO
INDEX 00 04:46:73
FILE "08 Or vienmi ad adornar.wav" WAVE
INDEX 01 00:00:00
TRACK 09 AUDIO
INDEX 00 05:42:07
FILE "09 Coro a bocca chiasu.wav" WAVE
INDEX 01 00:00:00
TRACK 10 AUDIO
INDEX 00 03:09:40
FILE "10 Oh eh! Oh eh! Oh eh!.wav" WAVE
INDEX 01 00:00:00
TRACK 11 AUDIO
INDEX 00 08:04:65
FILE "11 Gia il sole!.wav" WAVE
INDEX 01 00:00:00
TRACK 12 AUDIO
INDEX 00 01:57:43
FILE "12 Povera Butterfly.wav" WAVE
INDEX 01 00:00:00
TRACK 13 AUDIO
INDEX 00 02:43:45
FILE "13 lo so che alle sue pene.wav" WAVE
INDEX 01 00:00:00
TRACK 14 AUDIO
INDEX 00 03:33:47
FILE "14 Addio, fiorito asil.wav" WAVE
INDEX 01 00:00:00
TRACK 15 AUDIO
INDEX 00 01:40:63
FILE "15 Glielo dirai.wav" WAVE
INDEX 01 00:00:00
TRACK 16 AUDIO
INDEX 00 02:08:30
FILE "16 Che vuol da me.wav" WAVE
INDEX 01 00:00:00
TRACK 17 AUDIO
INDEX 00 05:33:52
FILE "17 Come una mosca prigioniera.wav" WAVE
INDEX 01 00:00:00
TRACK 18 AUDIO
INDEX 00 02:53:45
FILE "18 Con onor muore.wav" WAVE
INDEX 01 00:00:00

Треклист

Disc 1:
Act I:
1. "E Soffitto...E Pareti..."
2. "Questa È La Cameriera"
3. "Dovunque Al Mondo"
4. "Quale Smania Vi Praende!"
5. "Quanto Cielo!...Ancora Un Passo Or Via"
6. "Gran Ventura"
7. "L'Imperial Commissario"
8. "Vieni, Amor Mio!"
9. "Leri Son Salita Tutta Sola"
10. "Ed Eccoci In Famiglia"
11. "Viene La Sera"
12. "Bimba Dagli Occhi Pieni Di Malla"
13. "Vogliatemi Bene, Un Bene Piccolino"
Act II:
14. "E Izaghi Ed Izanami"
15. "Un Bel Dì Vedremo"
16. "C'È. Entrate"
17. "Non Io Sapete Insomma"
18. "Ora A Noi"
Disc 2:
1. "Ebbene, Che Fareste"
2. "E Questo? E Questo?"
3. "Che Tua Madre Dovrà"
4. "Io Scendo Al Piano"
5. "Vespa! Rospo Maledetto!"
6. "Una Nave Da Guerra...."
7. "Scuoti Quella Fronda Di Ciliegio"
8. "Or Vienmi Ad Adornar"
9. Humming Chorus
10. "Oh Eh! Oh Eh! Oh Eh!"
11. "Già Il sole!"
12. "Povera Butterfly"
13. "Io So Che Alle Sue Pene"
14. "Addio, Fiorito Asil"
15. "Glielo Dirai?"
16. "Che Vuol Da Me?"
17. "Come Una Mosca Prigioniera"
18."Con Onor Muore"



Показать сообщения:    

Текущее время: 08-Дек 01:19

Часовой пояс: UTC + 3


Вы не можете начинать темы
Вы не можете отвечать на сообщения
Вы не можете редактировать свои сообщения
Вы не можете удалять свои сообщения
Вы не можете голосовать в опросах
Вы не можете прикреплять файлы к сообщениям
Вы не можете скачивать файлы