Гении и злодеи. Микалоюс Константинас Чюрленис. Очарованный странник (Юлия Маврина) [2014, Документальный, история, биография, IPTVRip]


Статистика раздачи [Обновить пиров]
Размер:  401 MB   |    Зарегистрирован:  8 месяцев 14 дней   |    Скачан:  0 раз

Полного источника не было: Никогда

 
   
 
 
 

[Цитировать]

Гении и злодеи. Микалоюс Константинас Чюрленис. Очарованный странник
Дата/Год выпуска: 2014
Страна: Россия
Жанр: Документальный, история, биография
Продолжительность: 00:26:10
Перевод: Не требуется
Русские субтитры: нет
Режиссер: Юлия Маврина
Телеканал: Россия, Культура
Описание: Микалоюс Константинас Чюрленис был музыкантом, художником, поэтом. Мечта о единении искусств (идея "синтеза искусств") нашла в Чюрленисе едва ли не лучшее по сей день воплощение. Во всей мировой живописи произведения этого мастера занимают особое место. Лучшие его произведения волнуют именно своей "музыкальной живописью".
Сэмпл: http://multi-up.com/1068959
качество: IPTVRip
формат: AVI
Видео: 720x544 (1.32:1), 25 fps, XviD MPEG-4 ~1940 kbps avg, 0.20 bit/pixel
Аудио: 48 kHz, AC3 Dolby Digital, 2/0 (L,R) Surround Encoded ch, ~192 kbps

MediaInfo

General
Complete name : W:\Pshichko66\Na zapis'\Документальные фильмы\Genii i zlodei\Mikalojus Konstantinas Chjurljonis. Ocharovannyj strannik.avi
Format : AVI
Format/Info : Audio Video Interleave
File size : 401 MiB
Duration : 26mn 10s
Overall bit rate : 2 142 Kbps
Writing application : VirtualDubMod 1.5.10.2 (build 2540/release)
Writing library : VirtualDubMod build 2540/release
Video
ID : 0
Format : MPEG-4 Visual
Format profile : Advanced Simple@L5
Format settings, BVOP : 2
Format settings, QPel : No
Format settings, GMC : No warppoints
Format settings, Matrix : Custom
Codec ID : XVID
Codec ID/Hint : XviD
Duration : 26mn 10s
Bit rate : 1 940 Kbps
Width : 720 pixels
Height : 544 pixels
Display aspect ratio : 4:3
Frame rate : 25.000 fps
Color space : YUV
Chroma subsampling : 4:2:0
Bit depth : 8 bits
Scan type : Progressive
Compression mode : Lossy
Bits/(Pixel*Frame) : 0.198
Stream size : 363 MiB (91%)
Writing library : XviD 73
Audio
ID : 1
Format : AC-3
Format/Info : Audio Coding 3
Format profile : Dolby Digital
Mode extension : CM (complete main)
Format settings, Endianness : Big
Codec ID : 2000
Duration : 26mn 10s
Bit rate mode : Constant
Bit rate : 192 Kbps
Channel(s) : 2 channels
Channel positions : Front: L R
Sampling rate : 48.0 KHz
Compression mode : Lossy
Stream size : 36.0 MiB (9%)
Alignment : Split accross interleaves
Interleave, duration : 40 ms (1.00 video frame)
Interleave, preload duratio : 500 ms

Скриншоты

[teatrix.ru].t22374.torrent 
Торрент: Зарегистрирован [ 2016-03-20 12:36 ] · 7C2FD1DF56B1E172C04004EAB348ECB454DB3281

Скачать .torrent

Скачать

16 KB

Статус: проверено
Скачан: 0 раз
Размер: 401 MB
terms.php



Быстрый ответ

Имя:

      
Для отправки сообщений необходимо включить JavaScript
Показать сообщения:    

Текущее время: 04-Дек 02:57

Часовой пояс: UTC + 3


Вы можете начинать темы
Вы можете отвечать на сообщения
Вы не можете редактировать свои сообщения
Вы не можете удалять свои сообщения
Вы не можете голосовать в опросах
Вы не можете прикреплять файлы к сообщениям
Вы можете скачивать файлы