(Opera, Vocal) Cesar Vezzani - Opera Arias by Verdi, Puccini, Mascagni, Leoncavallo [Performed in French] (Compilation of Studio recordings made in 1927-1935) - 1999, FLAC (tracks+.cue), lossless


 

[Цитировать]

César Vezzani - Opera Arias
Жанр: Opera, Vocal
Страна-производитель диска: Франция
Год издания диска: 1999
Издатель (лейбл): Malibran
Дата записи: 1927-1935
Аудиокодек: FLAC
Тип рипа: tracks+.cue
Битрейт аудио: lossless
Продолжительность: 70:20
Источник: релизер (Guillermo)
Исполнители:
César Vezzani, tenor.
Conductors:
Henri Büsser (3, 4),
Piero Coppola (2, 8, 10, 12, 14),
Georges Lauweryns (1, 5-7, 9, 11, 13, 15, 16),
Henri Tomasi (18).

Лог создания рипа

Exact Audio Copy V1.0 beta 3 from 29. August 2011
EAC extraction logfile from 5. September 2015, 14:41
Artista desconocido / Título desconocido
Used drive : HL-DT-STDVDRAM GH24NSC0 Adapter: 3 ID: 0
Read mode : Secure
Utilize accurate stream : Yes
Defeat audio cache : Yes
Make use of C2 pointers : No
Read offset correction : 6
Overread into Lead-In and Lead-Out : No
Fill up missing offset samples with silence : Yes
Delete leading and trailing silent blocks : No
Null samples used in CRC calculations : Yes
Used interface : Native Win32 interface for Win NT & 2000
Gap handling : Appended to previous track
Used output format : User Defined Encoder
Selected bitrate : 768 kBit/s
Quality : High
Add ID3 tag : No
Command line compressor : C:\Program Files (x86)\Exact Audio Copy\FLAC\FLAC.EXE
Additional command line options : -8 -V -T "ARTIST=%artist%" -T "TITLE=%title%" -T "ALBUM=%albumtitle%" -T "DATE=%year%" -T "TRACKNUMBER=%tracknr%" -T "GENRE=%genre%" -T "PERFORMER=%albuminterpret%" -T "COMPOSER=%composer%" %haslyrics%--tag-from-file=LYRICS="%lyricsfile%"%haslyrics% -T "ALBUMARTIST=%albumartist%" -T "DISCNUMBER=%cdnumber%" -T "TOTALDISCS=%totalcds%" -T "TOTALTRACKS=%numtracks%" -T "COMMENT=%comment%" %source% -o %dest%
TOC of the extracted CD
Track | Start | Length | Start sector | End sector
---------------------------------------------------------
1 | 0:00.00 | 3:35.05 | 0 | 16129
2 | 3:35.05 | 2:10.55 | 16130 | 25934
3 | 5:45.60 | 2:20.60 | 25935 | 36494
4 | 8:06.45 | 3:07.12 | 36495 | 50531
5 | 11:13.57 | 1:37.10 | 50532 | 57816
6 | 12:50.67 | 2:26.73 | 57817 | 68839
7 | 15:17.65 | 2:32.20 | 68840 | 80259
8 | 17:50.10 | 4:33.17 | 80260 | 100751
9 | 22:23.27 | 2:37.13 | 100752 | 112539
10 | 25:00.40 | 8:48.15 | 112540 | 152154
11 | 33:48.55 | 2:44.20 | 152155 | 164474
12 | 36:33.00 | 9:15.10 | 164475 | 206109
13 | 45:48.10 | 2:02.15 | 206110 | 215274
14 | 47:50.25 | 7:22.70 | 215275 | 248494
15 | 55:13.20 | 3:12.57 | 248495 | 262951
16 | 58:26.02 | 2:44.70 | 262952 | 275321
17 | 61:10.72 | 3:24.23 | 275322 | 290644
18 | 64:35.20 | 5:52.12 | 290645 | 317056
Track 1
Filename f:\Users\Guillermo\Desktop\EAC convertidos\01 Pista01.wav
Pre-gap length 0:00:02.00
Peak level 88.0 %
Extraction speed 1.5 X
Track quality 100.0 %
Test CRC 31EF09EE
Copy CRC 31EF09EE
Copy OK
Track 2
Filename f:\Users\Guillermo\Desktop\EAC convertidos\02 Pista02.wav
Pre-gap length 0:00:02.00
Peak level 100.0 %
Extraction speed 1.5 X
Track quality 100.0 %
Test CRC C51D4A2B
Copy CRC C51D4A2B
Copy OK
Track 3
Filename f:\Users\Guillermo\Desktop\EAC convertidos\03 Pista03.wav
Pre-gap length 0:00:02.00
Peak level 70.0 %
Extraction speed 1.5 X
Track quality 100.0 %
Test CRC 09A67F51
Copy CRC 09A67F51
Copy OK
Track 4
Filename f:\Users\Guillermo\Desktop\EAC convertidos\04 Pista04.wav
Pre-gap length 0:00:02.00
Peak level 100.0 %
Extraction speed 1.8 X
Track quality 100.0 %
Test CRC 9C5F9AEE
Copy CRC 9C5F9AEE
Copy OK
Track 5
Filename f:\Users\Guillermo\Desktop\EAC convertidos\05 Pista05.wav
Pre-gap length 0:00:02.02
Peak level 62.3 %
Extraction speed 1.5 X
Track quality 100.0 %
Test CRC 5C8D2AF7
Copy CRC 5C8D2AF7
Copy OK
Track 6
Filename f:\Users\Guillermo\Desktop\EAC convertidos\06 Pista06.wav
Pre-gap length 0:00:01.98
Peak level 74.5 %
Extraction speed 1.8 X
Track quality 100.0 %
Test CRC DE446362
Copy CRC DE446362
Copy OK
Track 7
Filename f:\Users\Guillermo\Desktop\EAC convertidos\07 Pista07.wav
Pre-gap length 0:00:02.00
Peak level 76.9 %
Extraction speed 1.1 X
Track quality 99.5 %
Test CRC F932F2BA
Copy CRC F932F2BA
Copy OK
Track 8
Filename f:\Users\Guillermo\Desktop\EAC convertidos\08 Pista08.wav
Pre-gap length 0:00:02.00
Peak level 88.0 %
Extraction speed 2.3 X
Track quality 100.0 %
Test CRC 7FB0BB02
Copy CRC 7FB0BB02
Copy OK
Track 9
Filename f:\Users\Guillermo\Desktop\EAC convertidos\09 Pista09.wav
Pre-gap length 0:00:01.98
Peak level 68.2 %
Extraction speed 2.1 X
Track quality 100.0 %
Test CRC D2054BE3
Copy CRC D2054BE3
Copy OK
Track 10
Filename f:\Users\Guillermo\Desktop\EAC convertidos\10 Pista10.wav
Pre-gap length 0:00:02.00
Peak level 100.0 %
Extraction speed 2.8 X
Track quality 100.0 %
Test CRC 843E2629
Copy CRC 843E2629
Copy OK
Track 11
Filename f:\Users\Guillermo\Desktop\EAC convertidos\11 Pista11.wav
Pre-gap length 0:00:02.00
Peak level 86.3 %
Extraction speed 2.4 X
Track quality 100.0 %
Test CRC 9D289FBC
Copy CRC 9D289FBC
Copy OK
Track 12
Filename f:\Users\Guillermo\Desktop\EAC convertidos\12 Pista12.wav
Pre-gap length 0:00:02.00
Peak level 83.1 %
Extraction speed 3.1 X
Track quality 100.0 %
Test CRC F23FAF30
Copy CRC F23FAF30
Copy OK
Track 13
Filename f:\Users\Guillermo\Desktop\EAC convertidos\13 Pista13.wav
Pre-gap length 0:00:02.00
Peak level 74.0 %
Extraction speed 2.4 X
Track quality 100.0 %
Test CRC 2225BAF6
Copy CRC 2225BAF6
Copy OK
Track 14
Filename f:\Users\Guillermo\Desktop\EAC convertidos\14 Pista14.wav
Pre-gap length 0:00:02.00
Peak level 76.9 %
Extraction speed 2.9 X
Track quality 99.9 %
Test CRC 4FEC0423
Copy CRC 4FEC0423
Copy OK
Track 15
Filename f:\Users\Guillermo\Desktop\EAC convertidos\15 Pista15.wav
Pre-gap length 0:00:02.02
Peak level 77.5 %
Extraction speed 2.4 X
Track quality 99.8 %
Test CRC DC49E22A
Copy CRC DC49E22A
Copy OK
Track 16
Filename f:\Users\Guillermo\Desktop\EAC convertidos\16 Pista16.wav
Pre-gap length 0:00:01.98
Peak level 72.2 %
Extraction speed 2.9 X
Track quality 100.0 %
Test CRC F1AF88BD
Copy CRC F1AF88BD
Copy OK
Track 17
Filename f:\Users\Guillermo\Desktop\EAC convertidos\17 Pista17.wav
Pre-gap length 0:00:01.98
Peak level 77.4 %
Extraction speed 3.1 X
Track quality 100.0 %
Test CRC 80EFA0CF
Copy CRC 80EFA0CF
Copy OK
Track 18
Filename f:\Users\Guillermo\Desktop\EAC convertidos\18 Pista18.wav
Pre-gap length 0:00:02.02
Peak level 88.8 %
Extraction speed 3.5 X
Track quality 100.0 %
Test CRC BF73CA01
Copy CRC BF73CA01
Copy OK
No errors occurred
End of status report
==== Log checksum CDE7AD8A3BE2D74C2841D6F83DD6930D4D383154594182C61C8720DE9D728C4A ====

Содержание индексной карты (.CUE)

REM DISCID 01108312
REM COMMENT "ExactAudioCopy v1.0b3"
FILE "01 Pista01.wav" WAVE
TRACK 01 AUDIO
INDEX 01 00:00:00
TRACK 02 AUDIO
INDEX 00 03:33:05
FILE "02 Pista02.wav" WAVE
INDEX 01 00:00:00
TRACK 03 AUDIO
INDEX 00 02:08:55
FILE "03 Pista03.wav" WAVE
INDEX 01 00:00:00
TRACK 04 AUDIO
INDEX 00 02:18:60
FILE "04 Pista04.wav" WAVE
INDEX 01 00:00:00
TRACK 05 AUDIO
INDEX 00 03:05:10
FILE "05 Pista05.wav" WAVE
INDEX 01 00:00:00
TRACK 06 AUDIO
INDEX 00 01:35:11
FILE "06 Pista06.wav" WAVE
INDEX 01 00:00:00
TRACK 07 AUDIO
INDEX 00 02:24:73
FILE "07 Pista07.wav" WAVE
INDEX 01 00:00:00
TRACK 08 AUDIO
INDEX 00 02:30:20
FILE "08 Pista08.wav" WAVE
INDEX 01 00:00:00
TRACK 09 AUDIO
INDEX 00 04:31:18
FILE "09 Pista09.wav" WAVE
INDEX 01 00:00:00
TRACK 10 AUDIO
INDEX 00 02:35:13
FILE "10 Pista10.wav" WAVE
INDEX 01 00:00:00
TRACK 11 AUDIO
INDEX 00 08:46:15
FILE "11 Pista11.wav" WAVE
INDEX 01 00:00:00
TRACK 12 AUDIO
INDEX 00 02:42:20
FILE "12 Pista12.wav" WAVE
INDEX 01 00:00:00
TRACK 13 AUDIO
INDEX 00 09:13:10
FILE "13 Pista13.wav" WAVE
INDEX 01 00:00:00
TRACK 14 AUDIO
INDEX 00 02:00:15
FILE "14 Pista14.wav" WAVE
INDEX 01 00:00:00
TRACK 15 AUDIO
INDEX 00 07:20:68
FILE "15 Pista15.wav" WAVE
INDEX 01 00:00:00
TRACK 16 AUDIO
INDEX 00 03:10:58
FILE "16 Pista16.wav" WAVE
INDEX 01 00:00:00
TRACK 17 AUDIO
INDEX 00 02:42:71
FILE "17 Pista17.wav" WAVE
INDEX 01 00:00:00
TRACK 18 AUDIO
INDEX 00 03:22:21
FILE "18 Pista18.wav" WAVE
INDEX 01 00:00:00

Треклист

Giuseppe Verdi:
1. Aida - O céleste Aida
Otello:
2. Tout m'abandonne...
3. Dieu, tu pouvais...
4. Que nul ne craigne...
Il Trovatore (Le Trouvere):
5. Exilé sur la terre...
6. O toi, mon seul espoir...
7. Supplice infäme...
8. Miserere
Giacomo Puccini:
Tosca:
9. O de beautés égales...
10. Act 1, Duet
11. Le ciel luisait d'étoiles...
12. Act 3, Duet
Pietro Mascagni:
Cavalleria rusticana:
13. O Lola, blanche fleur...
14. C'est toi, Santuzza
Ruggero Leoncavallo:
Pagliacci (Paillasse)
15. Me grimer
16. Non, Paillasse n'est plus...
17. Gioachino Rossini - Guillaume Tell: Asile héréditaire
18. Anonymous - Lamentu Voceru (chant funèbre à la mêmoire de Joseph Calizi)



Показать сообщения:    

Текущее время: 09-Дек 22:27

Часовой пояс: UTC + 3


Вы не можете начинать темы
Вы не можете отвечать на сообщения
Вы не можете редактировать свои сообщения
Вы не можете удалять свои сообщения
Вы не можете голосовать в опросах
Вы не можете прикреплять файлы к сообщениям
Вы не можете скачивать файлы