(Opera, Vocal) Cesar Vezzani - French Opera Arias by Massenet, Gounod, Meyerbeer, Halevy, Bizet, Lalo (1927-1935 - Studio recordings) / 1999, FLAC (tracks+.cue), lossless


 

[Цитировать]

César Vezzani - French Opera Arias by Massenet, Gounod, Meyerbeer, Halevy, Bizet
Жанр: Opera, Vocal
Страна-производитель диска: Франция
Год издания диска: 1999
Издатель (лейбл): Malibran
Дата записи: 1927-1935
Аудиокодек: FLAC
Тип рипа: tracks+.cue
Битрейт аудио: lossless
Продолжительность: 73:06
Источник: релизер (Guillermo)
Исполнители:
César Vezzani, tenor.
Conductors:
Piero Coppola (1, 3, 4, 6-9, 11, 12, 18),
Georges Lauweryns (2),
Edouard Bervily (10, 15, 17).

Лог создания рипа

Exact Audio Copy V1.0 beta 3 from 29. August 2011
EAC extraction logfile from 8. September 2015, 17:11
Artista desconocido / Título desconocido
Used drive : HL-DT-STDVDRAM GH24NSC0 Adapter: 3 ID: 0
Read mode : Secure
Utilize accurate stream : Yes
Defeat audio cache : Yes
Make use of C2 pointers : No
Read offset correction : 6
Overread into Lead-In and Lead-Out : No
Fill up missing offset samples with silence : Yes
Delete leading and trailing silent blocks : No
Null samples used in CRC calculations : Yes
Used interface : Native Win32 interface for Win NT & 2000
Gap handling : Appended to previous track
Used output format : User Defined Encoder
Selected bitrate : 768 kBit/s
Quality : High
Add ID3 tag : No
Command line compressor : C:\Program Files (x86)\Exact Audio Copy\FLAC\FLAC.EXE
Additional command line options : -8 -V -T "ARTIST=%artist%" -T "TITLE=%title%" -T "ALBUM=%albumtitle%" -T "DATE=%year%" -T "TRACKNUMBER=%tracknr%" -T "GENRE=%genre%" -T "PERFORMER=%albuminterpret%" -T "COMPOSER=%composer%" %haslyrics%--tag-from-file=LYRICS="%lyricsfile%"%haslyrics% -T "ALBUMARTIST=%albumartist%" -T "DISCNUMBER=%cdnumber%" -T "TOTALDISCS=%totalcds%" -T "TOTALTRACKS=%numtracks%" -T "COMMENT=%comment%" %source% -o %dest%
TOC of the extracted CD
Track | Start | Length | Start sector | End sector
---------------------------------------------------------
1 | 0:00.00 | 4:36.00 | 0 | 20699
2 | 4:36.00 | 2:57.50 | 20700 | 34024
3 | 7:33.50 | 4:30.07 | 34025 | 54281
4 | 12:03.57 | 4:31.03 | 54282 | 74609
5 | 16:34.60 | 3:16.57 | 74610 | 89366
6 | 19:51.42 | 4:06.03 | 89367 | 107819
7 | 23:57.45 | 2:34.10 | 107820 | 119379
8 | 26:31.55 | 3:28.70 | 119380 | 135049
9 | 30:00.50 | 3:52.55 | 135050 | 152504
10 | 33:53.30 | 3:47.52 | 152505 | 169581
11 | 37:41.07 | 3:07.08 | 169582 | 183614
12 | 40:48.15 | 4:08.10 | 183615 | 202224
13 | 44:56.25 | 2:48.30 | 202225 | 214854
14 | 47:44.55 | 3:10.05 | 214855 | 229109
15 | 50:54.60 | 2:49.20 | 229110 | 241804
16 | 53:44.05 | 3:17.57 | 241805 | 256636
17 | 57:01.62 | 2:43.25 | 256637 | 268886
18 | 59:45.12 | 4:20.05 | 268887 | 288391
19 | 64:05.17 | 2:51.20 | 288392 | 301236
20 | 66:56.37 | 4:22.23 | 301237 | 320909
21 | 71:18.60 | 1:39.17 | 320910 | 328351
Track 1
Filename f:\Users\Guillermo\Desktop\EAC convertidos\01 Pista01.wav
Pre-gap length 0:00:02.00
Peak level 29.2 %
Extraction speed 1.7 X
Track quality 100.0 %
Test CRC B170E07B
Copy CRC B170E07B
Copy OK
Track 2
Filename f:\Users\Guillermo\Desktop\EAC convertidos\02 Pista02.wav
Pre-gap length 0:00:02.00
Peak level 35.2 %
Extraction speed 1.7 X
Track quality 100.0 %
Test CRC EC8313F4
Copy CRC EC8313F4
Copy OK
Track 3
Filename f:\Users\Guillermo\Desktop\EAC convertidos\03 Pista03.wav
Pre-gap length 0:00:02.00
Peak level 28.6 %
Extraction speed 2.0 X
Track quality 100.0 %
Test CRC 38762049
Copy CRC 38762049
Copy OK
Track 4
Filename f:\Users\Guillermo\Desktop\EAC convertidos\04 Pista04.wav
Pre-gap length 0:00:02.00
Peak level 43.3 %
Extraction speed 2.1 X
Track quality 100.0 %
Test CRC 05FDE82C
Copy CRC 05FDE82C
Copy OK
Track 5
Filename f:\Users\Guillermo\Desktop\EAC convertidos\05 Pista05.wav
Pre-gap length 0:00:02.00
Peak level 41.1 %
Extraction speed 2.1 X
Track quality 100.0 %
Test CRC 2B575974
Copy CRC 2B575974
Copy OK
Track 6
Filename f:\Users\Guillermo\Desktop\EAC convertidos\06 Pista06.wav
Pre-gap length 0:00:02.02
Peak level 24.9 %
Extraction speed 2.3 X
Track quality 100.0 %
Test CRC 6FC703F5
Copy CRC 6FC703F5
Copy OK
Track 7
Filename f:\Users\Guillermo\Desktop\EAC convertidos\07 Pista07.wav
Pre-gap length 0:00:02.00
Peak level 49.2 %
Extraction speed 2.2 X
Track quality 100.0 %
Test CRC 9B85DFC4
Copy CRC 9B85DFC4
Copy OK
Track 8
Filename f:\Users\Guillermo\Desktop\EAC convertidos\08 Pista08.wav
Pre-gap length 0:00:02.00
Peak level 25.2 %
Extraction speed 2.4 X
Track quality 100.0 %
Test CRC C3376686
Copy CRC C3376686
Copy OK
Track 9
Filename f:\Users\Guillermo\Desktop\EAC convertidos\09 Pista09.wav
Pre-gap length 0:00:02.00
Peak level 31.9 %
Extraction speed 2.6 X
Track quality 100.0 %
Test CRC A41D9F1A
Copy CRC A41D9F1A
Copy OK
Track 10
Filename f:\Users\Guillermo\Desktop\EAC convertidos\10 Pista10.wav
Pre-gap length 0:00:02.00
Peak level 21.9 %
Extraction speed 2.7 X
Track quality 100.0 %
Test CRC 795B0C17
Copy CRC 795B0C17
Copy OK
Track 11
Filename f:\Users\Guillermo\Desktop\EAC convertidos\11 Pista11.wav
Pre-gap length 0:00:02.00
Peak level 29.4 %
Extraction speed 2.6 X
Track quality 100.0 %
Test CRC C25FA264
Copy CRC C25FA264
Copy OK
Track 12
Filename f:\Users\Guillermo\Desktop\EAC convertidos\12 Pista12.wav
Pre-gap length 0:00:02.00
Peak level 21.2 %
Extraction speed 2.9 X
Track quality 100.0 %
Test CRC DA673DAB
Copy CRC DA673DAB
Copy OK
Track 13
Filename f:\Users\Guillermo\Desktop\EAC convertidos\13 Pista13.wav
Pre-gap length 0:00:02.00
Peak level 25.7 %
Extraction speed 2.7 X
Track quality 100.0 %
Test CRC E7C25081
Copy CRC E7C25081
Copy OK
Track 14
Filename f:\Users\Guillermo\Desktop\EAC convertidos\14 Pista14.wav
Pre-gap length 0:00:02.04
Peak level 37.9 %
Extraction speed 2.9 X
Track quality 100.0 %
Test CRC 201E27F6
Copy CRC 201E27F6
Copy OK
Track 15
Filename f:\Users\Guillermo\Desktop\EAC convertidos\15 Pista15.wav
Pre-gap length 0:00:02.00
Peak level 56.1 %
Extraction speed 2.8 X
Track quality 100.0 %
Test CRC E70BFD94
Copy CRC E70BFD94
Copy OK
Track 16
Filename f:\Users\Guillermo\Desktop\EAC convertidos\16 Pista16.wav
Pre-gap length 0:00:02.00
Peak level 36.9 %
Extraction speed 3.0 X
Track quality 100.0 %
Test CRC 497BCEBE
Copy CRC 497BCEBE
Copy OK
Track 17
Filename f:\Users\Guillermo\Desktop\EAC convertidos\17 Pista17.wav
Pre-gap length 0:00:02.00
Copy aborted
Track 18
Filename f:\Users\Guillermo\Desktop\EAC convertidos\18 Pista18.wav
Pre-gap length 0:00:02.02
Peak level 27.6 %
Extraction speed 3.3 X
Track quality 100.0 %
Test CRC BB65A606
Copy CRC BB65A606
Copy OK
Track 19
Filename f:\Users\Guillermo\Desktop\EAC convertidos\19 Pista19.wav
Pre-gap length 0:00:02.02
Peak level 53.9 %
Extraction speed 3.1 X
Track quality 100.0 %
Test CRC F15D1D31
Copy CRC F15D1D31
Copy OK
Track 20
Filename f:\Users\Guillermo\Desktop\EAC convertidos\20 Pista20.wav
Pre-gap length 0:00:02.00
Peak level 68.3 %
Extraction speed 3.4 X
Track quality 100.0 %
Test CRC 0C960336
Copy CRC 0C960336
Copy OK
Track 21
Filename f:\Users\Guillermo\Desktop\EAC convertidos\21 Pista21.wav
Pre-gap length 0:00:02.04
Peak level 39.0 %
Extraction speed 2.7 X
Track quality 100.0 %
Test CRC B7271D81
Copy CRC B7271D81
Copy OK
There were errors
End of status report
==== Log checksum 7D78D4E6583DFC22CEDBBC1FF55C5C7665D063B84193F7EB2EF9C19D94738361 ====
------------------------------------------------------------
Exact Audio Copy V1.0 beta 3 from 29. August 2011
EAC extraction logfile from 8. September 2015, 18:23
Artista desconocido / Título desconocido
Used drive : HL-DT-STDVDRAM GH24NSC0 Adapter: 3 ID: 0
Read mode : Secure
Utilize accurate stream : Yes
Defeat audio cache : Yes
Make use of C2 pointers : Yes
Read offset correction : 6
Overread into Lead-In and Lead-Out : No
Fill up missing offset samples with silence : Yes
Delete leading and trailing silent blocks : Yes
Null samples used in CRC calculations : Yes
Used interface : Native Win32 interface for Win NT & 2000
Gap handling : Appended to previous track
Used output format : User Defined Encoder
Selected bitrate : 768 kBit/s
Quality : High
Add ID3 tag : No
Command line compressor : C:\Program Files (x86)\Exact Audio Copy\FLAC\FLAC.EXE
Additional command line options : -8 -V -T "ARTIST=%artist%" -T "TITLE=%title%" -T "ALBUM=%albumtitle%" -T "DATE=%year%" -T "TRACKNUMBER=%tracknr%" -T "GENRE=%genre%" -T "PERFORMER=%albuminterpret%" -T "COMPOSER=%composer%" %haslyrics%--tag-from-file=LYRICS="%lyricsfile%"%haslyrics% -T "ALBUMARTIST=%albumartist%" -T "DISCNUMBER=%cdnumber%" -T "TOTALDISCS=%totalcds%" -T "TOTALTRACKS=%numtracks%" -T "COMMENT=%comment%" %source% -o %dest%
TOC of the extracted CD
Track | Start | Length | Start sector | End sector
---------------------------------------------------------
1 | 0:00.00 | 4:36.00 | 0 | 20699
2 | 4:36.00 | 2:57.50 | 20700 | 34024
3 | 7:33.50 | 4:30.07 | 34025 | 54281
4 | 12:03.57 | 4:31.03 | 54282 | 74609
5 | 16:34.60 | 3:16.57 | 74610 | 89366
6 | 19:51.42 | 4:06.03 | 89367 | 107819
7 | 23:57.45 | 2:34.10 | 107820 | 119379
8 | 26:31.55 | 3:28.70 | 119380 | 135049
9 | 30:00.50 | 3:52.55 | 135050 | 152504
10 | 33:53.30 | 3:47.52 | 152505 | 169581
11 | 37:41.07 | 3:07.08 | 169582 | 183614
12 | 40:48.15 | 4:08.10 | 183615 | 202224
13 | 44:56.25 | 2:48.30 | 202225 | 214854
14 | 47:44.55 | 3:10.05 | 214855 | 229109
15 | 50:54.60 | 2:49.20 | 229110 | 241804
16 | 53:44.05 | 3:17.57 | 241805 | 256636
17 | 57:01.62 | 2:43.25 | 256637 | 268886
18 | 59:45.12 | 4:20.05 | 268887 | 288391
19 | 64:05.17 | 2:51.20 | 288392 | 301236
20 | 66:56.37 | 4:22.23 | 301237 | 320909
21 | 71:18.60 | 1:39.17 | 320910 | 328351
Track 1
Filename f:\Users\Guillermo\Desktop\EAC convertidos\01 Pista01.wav
Pre-gap length 0:00:02.00
Peak level 29.2 %
Extraction speed 1.7 X
Track quality 100.0 %
Test CRC B170E07B
Copy CRC B170E07B
Copy OK
Track 2
Filename f:\Users\Guillermo\Desktop\EAC convertidos\02 Pista02.wav
Pre-gap length 0:00:02.00
Peak level 35.2 %
Extraction speed 1.7 X
Track quality 100.0 %
Test CRC EC8313F4
Copy CRC EC8313F4
Copy OK
Track 3
Filename f:\Users\Guillermo\Desktop\EAC convertidos\03 Pista03.wav
Pre-gap length 0:00:02.00
Peak level 28.6 %
Extraction speed 2.0 X
Track quality 100.0 %
Test CRC 38762049
Copy CRC 38762049
Copy OK
Track 4
Filename f:\Users\Guillermo\Desktop\EAC convertidos\04 Pista04.wav
Pre-gap length 0:00:02.00
Peak level 43.3 %
Extraction speed 2.1 X
Track quality 100.0 %
Test CRC 05FDE82C
Copy CRC 05FDE82C
Copy OK
Track 5
Filename f:\Users\Guillermo\Desktop\EAC convertidos\05 Pista05.wav
Pre-gap length 0:00:02.00
Peak level 41.1 %
Extraction speed 2.1 X
Track quality 100.0 %
Test CRC 2B575974
Copy CRC 2B575974
Copy OK
Track 6
Filename f:\Users\Guillermo\Desktop\EAC convertidos\06 Pista06.wav
Pre-gap length 0:00:02.02
Peak level 24.9 %
Extraction speed 2.3 X
Track quality 100.0 %
Test CRC 6FC703F5
Copy CRC 6FC703F5
Copy OK
Track 7
Filename f:\Users\Guillermo\Desktop\EAC convertidos\07 Pista07.wav
Pre-gap length 0:00:02.00
Peak level 49.2 %
Extraction speed 2.2 X
Track quality 100.0 %
Test CRC 9B85DFC4
Copy CRC 9B85DFC4
Copy OK
Track 8
Filename f:\Users\Guillermo\Desktop\EAC convertidos\08 Pista08.wav
Pre-gap length 0:00:02.00
Peak level 25.2 %
Extraction speed 2.4 X
Track quality 100.0 %
Test CRC C3376686
Copy CRC C3376686
Copy OK
Track 9
Filename f:\Users\Guillermo\Desktop\EAC convertidos\09 Pista09.wav
Pre-gap length 0:00:02.00
Peak level 31.9 %
Extraction speed 2.6 X
Track quality 100.0 %
Test CRC A41D9F1A
Copy CRC A41D9F1A
Copy OK
Track 10
Filename f:\Users\Guillermo\Desktop\EAC convertidos\10 Pista10.wav
Pre-gap length 0:00:02.00
Peak level 21.9 %
Extraction speed 2.7 X
Track quality 100.0 %
Test CRC 795B0C17
Copy CRC 795B0C17
Copy OK
Track 11
Filename f:\Users\Guillermo\Desktop\EAC convertidos\11 Pista11.wav
Pre-gap length 0:00:02.00
Peak level 29.4 %
Extraction speed 2.6 X
Track quality 100.0 %
Test CRC C25FA264
Copy CRC C25FA264
Copy OK
Track 12
Filename f:\Users\Guillermo\Desktop\EAC convertidos\12 Pista12.wav
Pre-gap length 0:00:02.00
Peak level 21.2 %
Extraction speed 2.9 X
Track quality 100.0 %
Test CRC DA673DAB
Copy CRC DA673DAB
Copy OK
Track 13
Filename f:\Users\Guillermo\Desktop\EAC convertidos\13 Pista13.wav
Pre-gap length 0:00:02.00
Peak level 25.7 %
Extraction speed 2.7 X
Track quality 100.0 %
Test CRC E7C25081
Copy CRC E7C25081
Copy OK
Track 14
Filename f:\Users\Guillermo\Desktop\EAC convertidos\14 Pista14.wav
Pre-gap length 0:00:02.04
Peak level 37.9 %
Extraction speed 2.9 X
Track quality 100.0 %
Test CRC 201E27F6
Copy CRC 201E27F6
Copy OK
Track 15
Filename f:\Users\Guillermo\Desktop\EAC convertidos\15 Pista15.wav
Pre-gap length 0:00:02.00
Peak level 56.1 %
Extraction speed 2.8 X
Track quality 100.0 %
Test CRC E70BFD94
Copy CRC E70BFD94
Copy OK
Track 16
Filename f:\Users\Guillermo\Desktop\EAC convertidos\16 Pista16.wav
Pre-gap length 0:00:02.00
Peak level 36.9 %
Extraction speed 3.0 X
Track quality 100.0 %
Test CRC 497BCEBE
Copy CRC 497BCEBE
Copy OK
Track 17
Filename f:\Users\Guillermo\Desktop\EAC convertidos\17 Pista17.wav
Pre-gap length 0:00:02.00
Peak level 39.2 %
Extraction speed 1.0 X
Track quality 99.1 %
Test CRC A2F55A0A
Copy CRC B13FC6A9
Copy OK
Track 18
Filename f:\Users\Guillermo\Desktop\EAC convertidos\18 Pista18.wav
Pre-gap length 0:00:02.02
Peak level 27.6 %
Extraction speed 3.3 X
Track quality 100.0 %
Test CRC BB65A606
Copy CRC BB65A606
Copy OK
Track 19
Filename f:\Users\Guillermo\Desktop\EAC convertidos\19 Pista19.wav
Pre-gap length 0:00:02.02
Peak level 53.9 %
Extraction speed 3.1 X
Track quality 100.0 %
Test CRC F15D1D31
Copy CRC F15D1D31
Copy OK
Track 20
Filename f:\Users\Guillermo\Desktop\EAC convertidos\20 Pista20.wav
Pre-gap length 0:00:02.00
Peak level 68.3 %
Extraction speed 3.4 X
Track quality 100.0 %
Test CRC 0C960336
Copy CRC 0C960336
Copy OK
Track 21
Filename f:\Users\Guillermo\Desktop\EAC convertidos\21 Pista21.wav
Pre-gap length 0:00:02.04
Peak level 39.0 %
Extraction speed 2.7 X
Track quality 100.0 %
Test CRC B7271D81
Copy CRC B7271D81
Copy OK
No errors occurred
End of status report
==== Log checksum CEDB252568D357ED25F690613E314E8473AED59403B5D6069D230D53A4F3C9FE ====

Содержание индексной карты (.CUE)

REM DISCID 44111A15
REM COMMENT "ExactAudioCopy v1.0b3"
FILE "01 Pista01.wav" WAVE
TRACK 01 AUDIO
INDEX 01 00:00:00
TRACK 02 AUDIO
INDEX 00 04:34:00
FILE "02 Pista02.wav" WAVE
INDEX 01 00:00:00
TRACK 03 AUDIO
INDEX 00 02:55:50
FILE "03 Pista03.wav" WAVE
INDEX 01 00:00:00
TRACK 04 AUDIO
INDEX 00 04:28:07
FILE "04 Pista04.wav" WAVE
INDEX 01 00:00:00
TRACK 05 AUDIO
INDEX 00 04:29:03
FILE "05 Pista05.wav" WAVE
INDEX 01 00:00:00
TRACK 06 AUDIO
INDEX 00 03:14:55
FILE "06 Pista06.wav" WAVE
INDEX 01 00:00:00
TRACK 07 AUDIO
INDEX 00 04:04:03
FILE "07 Pista07.wav" WAVE
INDEX 01 00:00:00
TRACK 08 AUDIO
INDEX 00 02:32:10
FILE "08 Pista08.wav" WAVE
INDEX 01 00:00:00
TRACK 09 AUDIO
INDEX 00 03:26:70
FILE "09 Pista09.wav" WAVE
INDEX 01 00:00:00
TRACK 10 AUDIO
INDEX 00 03:50:55
FILE "10 Pista10.wav" WAVE
INDEX 01 00:00:00
TRACK 11 AUDIO
INDEX 00 03:45:52
FILE "11 Pista11.wav" WAVE
INDEX 01 00:00:00
TRACK 12 AUDIO
INDEX 00 03:05:08
FILE "12 Pista12.wav" WAVE
INDEX 01 00:00:00
TRACK 13 AUDIO
INDEX 00 04:06:10
FILE "13 Pista13.wav" WAVE
INDEX 01 00:00:00
TRACK 14 AUDIO
INDEX 00 02:46:27
FILE "14 Pista14.wav" WAVE
INDEX 01 00:00:00
TRACK 15 AUDIO
INDEX 00 03:08:05
FILE "15 Pista15.wav" WAVE
INDEX 01 00:00:00
TRACK 16 AUDIO
INDEX 00 02:47:20
FILE "16 Pista16.wav" WAVE
INDEX 01 00:00:00
TRACK 17 AUDIO
INDEX 00 03:15:57
FILE "17 Pista17.wav" WAVE
INDEX 01 00:00:00
TRACK 18 AUDIO
INDEX 00 02:41:23
FILE "18 Pista18.wav" WAVE
INDEX 01 00:00:00
TRACK 19 AUDIO
INDEX 00 04:18:03
FILE "19 Pista19.wav" WAVE
INDEX 01 00:00:00
TRACK 20 AUDIO
INDEX 00 02:49:20
FILE "20 Pista20.wav" WAVE
INDEX 01 00:00:00
TRACK 21 AUDIO
INDEX 00 04:20:20
FILE "21 Pista21.wav" WAVE
INDEX 01 00:00:00

Треклист

1. Marc-Antoine Charpentier - Louise: Depuis longtemps (1935)
Giacomo Meyerbeer - L'africaine:
2. O paradis (1928)
3. Combien tu m'es chère (1928)
4. Erreur fatale (1932)
5. Giuseppe Verdi - Jérusalem: Je veux encore (1922)
Jules Massenet:
6. Hérodiade: Ne pouvant réprimer (1932)
7. La Navarraise: O, bien aimée (1931)
Charles Gounod - Roméo et Juliette (1932):
8. Cavatine
9. Salut tombeau
10. Gabriel Urbain Faure - Le crucifix (1930)
Édouard Lalo - Roi d'Ys (1932),
11. Leaubade
12. A l'autel, j'allais rayonnant
Jules Massenet - Werther:
13. J'aurais sur ma poitrine (192)
14. Oui, ce qu'elle m'ordonne (1928)
15. Riccardo Drigo - Les millions d'Arlequin (1931)
16. U banditu d'onore (Corsican ballade) (1932)
17. Ruggero Leoncavallo - Mattinata (1931)
18. Georges Bizet - Les pêcheurs de perles: Au fond du temple saint (1932)
Fromental Halevy - La Juive (1927):
19. Dieu, que ma voix tremblante
20. Rachel, quand du seigneur
21. U trenu di bastia (1932)



Показать сообщения:    

Текущее время: 04-Дек 00:52

Часовой пояс: UTC + 3


Вы не можете начинать темы
Вы не можете отвечать на сообщения
Вы не можете редактировать свои сообщения
Вы не можете удалять свои сообщения
Вы не можете голосовать в опросах
Вы не можете прикреплять файлы к сообщениям
Вы не можете скачивать файлы