(Classical Crossover, Operatic Pop) Il volo - L'amore si muove - 2015, FLAC (image+.cue) lossless


 

[Цитировать]

Il volo / L'amore si muove
Жанр: Classical Crossover, Operatic Pop
Страна-производитель диска: Italy
Год издания диска: 2015
Издатель (лейбл): Sony music latin
Номер по каталогу: 88875142252
Страна: Italy
Аудиокодек: FLAC
Тип рипа: image+.cue
Битрейт аудио: lossless
Продолжительность: 48.44
Источник: скачано с
Наличие сканов в содержимом раздачи: да
Треклист:
1 L'amore Si Muove
2 Quando L'amore Diventa Poesia
3 Io Che Non Vivo (Senza Te)
4 Il Tuo Sguardo Manca
5 The Best Day Of My Life
6 La Vita
7 Nel Blu, Dipinto Di Blu (Volare)
8 Eternally
9 Ricordami
10 Per Te Ci Sarò
11 Tornera L'amore
12 Aspetterò
13 Beautiful That Way (La Vita è Bella)

Лог создания рипа

Exact Audio Copy V1.1 from 23. June 2015
EAC extraction logfile from 28. September 2015, 18:23
Il Volo / L'amore si muove
Used drive : ASUS BC-12D2HT Adapter: 1 ID: 0
Read mode : Secure
Utilize accurate stream : Yes
Defeat audio cache : Yes
Make use of C2 pointers : No
Read offset correction : 6
Overread into Lead-In and Lead-Out : No
Fill up missing offset samples with silence : Yes
Delete leading and trailing silent blocks : No
Null samples used in CRC calculations : Yes
Used interface : Installed external ASPI interface
Gap handling : Appended to previous track
Used output format : User Defined Encoder
Selected bitrate : 1024 kBit/s
Quality : High
Add ID3 tag : No
Command line compressor : C:\Program Files (x86)\Exact Audio Copy\FLAC\FLAC.EXE
Additional command line options : -8 -V -T "ARTIST=%artist%" -T "TITLE=%title%" -T "ALBUM=%albumtitle%" -T "DATE=%year%" -T "TRACKNUMBER=%tracknr%" -T "GENRE=%genre%" -T "PERFORMER=%albuminterpret%" -T "COMPOSER=%composer%" %haslyrics%--tag-from-file=LYRICS="%lyricsfile%"%haslyrics% -T "ALBUMARTIST=%albumartist%" -T "DISCNUMBER=%cdnumber%" -T "TOTALDISCS=%totalcds%" -T "TOTALTRACKS=%numtracks%" -T "COMMENT=%comment%" %source% -o %dest%
TOC of the extracted CD
Track | Start | Length | Start sector | End sector
---------------------------------------------------------
1 | 0:00.00 | 3:40.24 | 0 | 16523
2 | 3:40.24 | 3:13.44 | 16524 | 31042
3 | 6:53.68 | 2:48.71 | 31043 | 43713
4 | 9:42.64 | 3:42.62 | 43714 | 60425
5 | 13:25.51 | 4:04.47 | 60426 | 78772
6 | 17:30.23 | 3:36.09 | 78773 | 94981
7 | 21:06.32 | 3:45.73 | 94982 | 111929
8 | 24:52.30 | 3:21.22 | 111930 | 127026
9 | 28:13.52 | 3:39.03 | 127027 | 143454
10 | 31:52.55 | 4:28.14 | 143455 | 163568
11 | 36:20.69 | 4:24.61 | 163569 | 183429
12 | 40:45.55 | 3:48.44 | 183430 | 200573
13 | 44:34.24 | 3:44.02 | 200574 | 217375
Track 1
Filename C:\Steno\01. Il Volo - L'amore si muove.wav
Pre-gap length 0:00:02.00
Peak level 100.0 %
Extraction speed 4.2 X
Track quality 100.0 %
Test CRC 499986D6
Copy CRC 499986D6
Track not present in AccurateRip database
Copy OK
Track 2
Filename C:\Steno\02. Il Volo - Quando l'amore diventa poesia.wav
Pre-gap length 0:00:01.26
Peak level 100.0 %
Extraction speed 4.5 X
Track quality 100.0 %
Test CRC 671E971C
Copy CRC 671E971C
Track not present in AccurateRip database
Copy OK
Track 3
Filename C:\Steno\03. Il Volo - Io che non vivo (Senza te).wav
Pre-gap length 0:00:01.00
Peak level 100.0 %
Extraction speed 3.9 X
Track quality 99.9 %
Test CRC A32F8124
Copy CRC A32F8124
Track not present in AccurateRip database
Copy OK
Track 4
Filename C:\Steno\04. Il Volo - Il tuo sguardo manca.wav
Pre-gap length 0:00:01.33
Peak level 98.8 %
Extraction speed 5.3 X
Track quality 100.0 %
Test CRC F0073DB9
Copy CRC F0073DB9
Track not present in AccurateRip database
Copy OK
Track 5
Filename C:\Steno\05. Il Volo - The best day of my life.wav
Pre-gap length 0:00:00.66
Peak level 100.0 %
Extraction speed 5.7 X
Track quality 100.0 %
Test CRC D9F918F9
Copy CRC D9F918F9
Track not present in AccurateRip database
Copy OK
Track 6
Filename C:\Steno\06. Il Volo - La vita.wav
Pre-gap length 0:00:01.40
Peak level 100.0 %
Extraction speed 5.0 X
Track quality 99.9 %
Test CRC B19A28C9
Copy CRC B19A28C9
Track not present in AccurateRip database
Copy OK
Track 7
Filename C:\Steno\07. Il Volo - Nel blu, dipinto di blu (Volare).wav
Pre-gap length 0:00:01.66
Peak level 100.0 %
Extraction speed 6.3 X
Track quality 100.0 %
Test CRC 66A51A69
Copy CRC 66A51A69
Track not present in AccurateRip database
Copy OK
Track 8
Filename C:\Steno\08. Il Volo - Eternally.wav
Pre-gap length 0:00:01.13
Peak level 100.0 %
Extraction speed 6.4 X
Track quality 100.0 %
Test CRC 25C5DC45
Copy CRC 25C5DC45
Track not present in AccurateRip database
Copy OK
Track 9
Filename C:\Steno\09. Il Volo - Ricordami.wav
Pre-gap length 0:00:01.33
Peak level 100.0 %
Extraction speed 6.8 X
Track quality 100.0 %
Test CRC ED5EF859
Copy CRC ED5EF859
Track not present in AccurateRip database
Copy OK
Track 10
Filename C:\Steno\10. Il Volo - Per te ci sarò.wav
Pre-gap length 0:00:01.26
Peak level 98.8 %
Extraction speed 7.1 X
Track quality 100.0 %
Test CRC 2B3DD966
Copy CRC 2B3DD966
Track not present in AccurateRip database
Copy OK
Track 11
Filename C:\Steno\11. Il Volo - Tornerà l'amore.wav
Pre-gap length 0:00:01.49
Peak level 98.8 %
Extraction speed 7.4 X
Track quality 100.0 %
Test CRC 93EBD2B2
Copy CRC 93EBD2B2
Track not present in AccurateRip database
Copy OK
Track 12
Filename C:\Steno\12. Il Volo - Aspetterò.wav
Pre-gap length 0:00:01.33
Peak level 98.8 %
Extraction speed 7.6 X
Track quality 100.0 %
Test CRC 66534FD8
Copy CRC 66534FD8
Track not present in AccurateRip database
Copy OK
Track 13
Filename C:\Steno\13. Il Volo - Beautiful that way [La vita è bella].wav
Pre-gap length 0:00:01.40
Peak level 100.0 %
Extraction speed 7.8 X
Track quality 100.0 %
Test CRC 83DE24EC
Copy CRC 83DE24EC
Track not present in AccurateRip database
Copy OK
None of the tracks are present in the AccurateRip database
No errors occurred
End of status report
---- CUETools DB Plugin V2.1.6
[CTDB TOCID: WlvDapUDZ1Sz9bpS9CjtRoZcAT0-] found
Submit result: WlvDapUDZ1Sz9bpS9CjtRoZcAT0- has been confirmed
Track | CTDB Status
1 | (1/1) Accurately ripped
2 | (1/1) Accurately ripped
3 | (1/1) Accurately ripped
4 | (1/1) Accurately ripped
5 | (1/1) Accurately ripped
6 | (1/1) Accurately ripped
7 | (1/1) Accurately ripped
8 | (1/1) Accurately ripped
9 | (1/1) Accurately ripped
10 | (1/1) Accurately ripped
11 | (1/1) Accurately ripped
12 | (1/1) Accurately ripped
13 | (1/1) Accurately ripped
==== Log checksum 4EF1BE66B46605657DB0D52A9FA1D026860D4EA07AE99B90241795D2154280D6 ====

Содержание индексной карты (.CUE)

REM GENRE "Pop, Crossover Classico"
REM DATE 2015
REM DISCID B40B520D
REM COMMENT "ExactAudioCopy v1.1"
CATALOG 0888751422520
PERFORMER "Il Volo"
TITLE "L'amore si muove"
FILE "01. Il Volo - L'amore si muove.flac" WAVE
TRACK 01 AUDIO
TITLE "L'amore si muove"
PERFORMER "Il Volo"
ISRC USSD11500270
INDEX 01 00:00:00
TRACK 02 AUDIO
TITLE "Quando l'amore diventa poesia"
PERFORMER "Il Volo"
ISRC USSD11500211
INDEX 00 03:39:04
FILE "02. Il Volo - Quando l'amore diventa poesia.flac" WAVE
INDEX 01 00:00:00
TRACK 03 AUDIO
TITLE "Io che non vivo (Senza te)"
PERFORMER "Il Volo"
ISRC USSD11500264
INDEX 00 03:12:44
FILE "03. Il Volo - Io che non vivo (Senza te).flac" WAVE
INDEX 01 00:00:00
TRACK 04 AUDIO
TITLE "Il tuo sguardo manca"
PERFORMER "Il Volo"
ISRC USSD11500265
INDEX 00 02:47:46
FILE "04. Il Volo - Il tuo sguardo manca.flac" WAVE
INDEX 01 00:00:00
TRACK 05 AUDIO
TITLE "The best day of my life"
PERFORMER "Il Volo"
ISRC USSD11500216
INDEX 00 03:42:12
FILE "05. Il Volo - The best day of my life.flac" WAVE
INDEX 01 00:00:00
TRACK 06 AUDIO
TITLE "La vita"
PERFORMER "Il Volo"
ISRC USSD11500210
INDEX 00 04:03:17
FILE "06. Il Volo - La vita.flac" WAVE
INDEX 01 00:00:00
TRACK 07 AUDIO
TITLE "Nel blu, dipinto di blu (Volare)"
PERFORMER "Il Volo"
ISRC USSD11500201
INDEX 00 03:34:34
FILE "07. Il Volo - Nel blu, dipinto di blu (Volare).flac" WAVE
INDEX 01 00:00:00
TRACK 08 AUDIO
TITLE "Eternally"
PERFORMER "Il Volo"
ISRC USSD11500213
INDEX 00 03:44:63
FILE "08. Il Volo - Eternally.flac" WAVE
INDEX 01 00:00:00
TRACK 09 AUDIO
TITLE "Ricordami"
PERFORMER "Il Volo"
ISRC USSD11500269
INDEX 00 03:19:72
FILE "09. Il Volo - Ricordami.flac" WAVE
INDEX 01 00:00:00
TRACK 10 AUDIO
TITLE "Per te ci saro"
PERFORMER "Il Volo"
ISRC USSD11500268
INDEX 00 03:37:58
FILE "10. Il Volo - Per te ci saro.flac" WAVE
INDEX 01 00:00:00
TRACK 11 AUDIO
TITLE "Tornerа l'amore"
PERFORMER "Il Volo"
ISRC USSD11500266
INDEX 00 04:26:52
FILE "11. Il Volo - Tornerа l'amore.flac" WAVE
INDEX 01 00:00:00
TRACK 12 AUDIO
TITLE "Aspettero"
PERFORMER "Il Volo"
ISRC USSD11500267
INDEX 00 04:23:36
FILE "12. Il Volo - Aspettero.flac" WAVE
INDEX 01 00:00:00
TRACK 13 AUDIO
TITLE "Beautiful that way [La vita и bella]"
PERFORMER "Il Volo"
ISRC USSD11500202
INDEX 00 03:47:14
FILE "13. Il Volo - Beautiful that way [La vita и bella].flac" WAVE
INDEX 01 00:00:00



Показать сообщения:    

Текущее время: 04-Дек 02:49

Часовой пояс: UTC + 3


Вы не можете начинать темы
Вы не можете отвечать на сообщения
Вы не можете редактировать свои сообщения
Вы не можете удалять свои сообщения
Вы не можете голосовать в опросах
Вы не можете прикреплять файлы к сообщениям
Вы не можете скачивать файлы