(Opera) Thomas - Mignon (Horne, Welting, Vanzo, Von Stade - Ambrosian Opera Chorus / Phiharmonia Orchestra, De Almeida) - 2009, APE (image+.cue) lossless


 

[Цитировать]

Ambroise Thomas - Mignon
Жанр: Opera
Страна-производитель диска: EU
Год издания диска: 2009
Издатель (лейбл): Sony Music
Номер по каталогу: 89697527332
Дата записи: 1978
Аудиокодек: APE
Тип рипа: image+.cue
Битрейт аудио: lossless
Продолжительность: 75'39+64'17+54'39
Источник: собственный рип
Наличие сканов в содержимом раздачи: да
Треклист:

CD1

1. Ouvertüre (1. Akt)
2. Bons bourgeois et notables
3. Fugitif et tremblant
4. Place, amis, faites place!
5. Laetre, ami Laerte, accourez au plus vite!
6. Pour gagner maintenant toute votre indulgence
7. Holá, coquin! Arrête
8. Quel est, je veux la savoir
9. Monsieur!
10. Oui, je veux par le monde promener
11. J'aime votre gaité
12. Eh quoi! mon cher Laerte
13. De mon ami, monsieur, excusez la folie
14. Demain, dis-tu?
15. Dis-moi de quelles plages lointaines
16. Connais-tu le pays
17. Ce pays enchanté, n'est-ce pas l'Italie?
18. Légères hirondelles
19. Comment! C'est vous?
20. Pourquoi pas!
21. Viens, la libre vie est douce!
22. En route, amis plions bagages
23. Qui m'aime me suive!

CD2

1. Entr'acte (2. Akt)
2. A merveille, j'en ris d'avance!
3. Ecoutez! Belle, avez pitié de nous!
4. Plus de soucis, Mignon!
5. Ah! je crois entendre les doux compliments
6. Me voilà seule hélas!
7. Je connais un pauvre enfant
8. C'est moi, j'ai tout brisé, n'importe, m'y voici!
9. Mignon! j'ai promis de me séparer d'elle
10 Adieu, Mignon!
11. Merci de tes bontés!
12. Demain je serai loin!
13. Vous disiez vrai!
14. Interlude
15. Elle est là, près de lui!
16. Ciel! qu'entends-je?
17. As-tu souffert
18. Ah! Brava! La philine est vraiment divine!
19. Oui, ce soir je suis la reine des fées
20. Je suis Titania
21. Ah! Vous voilà!

CD3

1. Ah! Au souffle léger du vent (3. Akt)
2. De son coeur, jài calmé la fièvre
3. Vous verrez de cette fenetre
4. Elle ne croyait pas dans sa candeur naive
5. Signor!
6. Je suis heureuse
7. Je suis Titania
8. Ah! malheureuse enfant!
9. Mignon! Wilhelm! Salut à vous!
10. O Vierge Marie
11. Elle revit!
12. A merveille! J'en ris d'avance! (Appendix 1, Alternative Eröffnung des 2. Aktes)
13. Dansons, dansons, amis, dansons! (Appendix 2, Alternatives Finale für den 3. Akt)
Исполнители:
Ambroise Thomas - Mignon
Marilyn Horne (Mignon)
Alain Vanzo (Wilhelm Meister)
Nicola Zaccaria (Lothario)
Frederica von Stade (Frédéric)
Ruth Welting (Philine)
André Battedou (Laerte)
Claude Meloni (Jarno)
Ambrosian Opera Chorus
Philharmonia Orchestra
Antonio De Almeida

Лог создания рипа

CD1

Exact Audio Copy V1.0 beta 6 from 9. April 2015
EAC extraction logfile from 29. September 2015, 21:54
Horne_Welting_Vanzo_Von Stade_Ambrosian_Opera_Chor_Philh_Orch_De_Almeida / Thomas - Mignon, de Almeida CD1
Used drive : HL-DT-STDVDRAM GH22NS50 Adapter: 1 ID: 0
Read mode : Secure
Utilize accurate stream : Yes
Defeat audio cache : Yes
Make use of C2 pointers : No
Read offset correction : 667
Overread into Lead-In and Lead-Out : No
Fill up missing offset samples with silence : Yes
Delete leading and trailing silent blocks : No
Null samples used in CRC calculations : Yes
Used interface : Native Win32 interface for Win NT & 2000
Used output format : Monkey's Audio Lossless Encoder
Selected bitrate : High Lossless Compression
Quality : High
Add ID3 tag : Yes
Command line compressor : C:\Program Files (x86)\Exact Audio Copy\MAC\MAC.exe
TOC of the extracted CD
Track | Start | Length | Start sector | End sector
---------------------------------------------------------
1 | 0:00.00 | 8:03.67 | 0 | 36291
2 | 8:03.67 | 1:10.43 | 36292 | 41584
3 | 9:14.35 | 4:48.20 | 41585 | 63204
4 | 14:02.55 | 1:36.02 | 63205 | 70406
5 | 15:38.57 | 4:17.73 | 70407 | 89754
6 | 19:56.55 | 4:08.05 | 89755 | 108359
7 | 24:04.60 | 1:02.72 | 108360 | 113081
8 | 25:07.57 | 4:37.08 | 113082 | 133864
9 | 29:44.65 | 2:03.45 | 133865 | 143134
10 | 31:48.35 | 4:40.17 | 143135 | 164151
11 | 36:28.52 | 1:40.05 | 164152 | 171656
12 | 38:08.57 | 4:56.25 | 171657 | 193881
13 | 43:05.07 | 1:23.25 | 193882 | 200131
14 | 44:28.32 | 1:57.28 | 200132 | 208934
15 | 46:25.60 | 0:33.30 | 208935 | 211439
16 | 46:59.15 | 6:07.30 | 211440 | 238994
17 | 53:06.45 | 2:04.52 | 238995 | 248346
18 | 55:11.22 | 3:02.00 | 248347 | 261996
19 | 58:13.22 | 4:19.05 | 261997 | 281426
20 | 62:32.27 | 1:52.73 | 281427 | 289899
21 | 64:25.25 | 2:17.50 | 289900 | 300224
22 | 66:43.00 | 2:19.32 | 300225 | 310681
23 | 69:02.32 | 6:36.73 | 310682 | 340454
Range status and errors
Selected range
Filename D:\EAC\Thomas - Mignon, de Almeida CD1.wav
Peak level 100.0 %
Extraction speed 2.1 X
Range quality 100.0 %
Test CRC 6C3FE8CF
Copy CRC 6C3FE8CF
Copy OK
No errors occurred
AccurateRip summary
Track 1 accurately ripped (confidence 4) [AC736871] (AR v2)
Track 2 accurately ripped (confidence 4) [62776EFF] (AR v2)
Track 3 accurately ripped (confidence 3) [7F4639D5] (AR v2)
Track 4 accurately ripped (confidence 4) [3E1D3758] (AR v2)
Track 5 accurately ripped (confidence 4) [2685B912] (AR v2)
Track 6 accurately ripped (confidence 4) [5228028C] (AR v2)
Track 7 accurately ripped (confidence 4) [A69F9D92] (AR v2)
Track 8 accurately ripped (confidence 4) [86CC6A66] (AR v2)
Track 9 accurately ripped (confidence 4) [6F733E5A] (AR v2)
Track 10 accurately ripped (confidence 4) [B8CC2D88] (AR v2)
Track 11 accurately ripped (confidence 4) [4F22F3F7] (AR v2)
Track 12 accurately ripped (confidence 4) [18A63F17] (AR v2)
Track 13 accurately ripped (confidence 4) [674D686F] (AR v2)
Track 14 accurately ripped (confidence 4) [E87E9603] (AR v2)
Track 15 accurately ripped (confidence 4) [C04741ED] (AR v2)
Track 16 accurately ripped (confidence 4) [F5659360] (AR v2)
Track 17 accurately ripped (confidence 4) [7CDFF865] (AR v2)
Track 18 accurately ripped (confidence 4) [AF55B21C] (AR v2)
Track 19 accurately ripped (confidence 4) [394F88C9] (AR v2)
Track 20 accurately ripped (confidence 4) [2198E898] (AR v2)
Track 21 accurately ripped (confidence 4) [7A633CA3] (AR v2)
Track 22 accurately ripped (confidence 4) [08D69950] (AR v2)
Track 23 accurately ripped (confidence 4) [A9703AD6] (AR v2)
All tracks accurately ripped
End of status report
---- CUETools DB Plugin V2.1.6
[CTDB TOCID: F5tV2vDalcFSzXoxcaLze1n1Jeo-] found
Submit result: F5tV2vDalcFSzXoxcaLze1n1Jeo- has been confirmed
Track | CTDB Status
1 | (4/6) Accurately ripped, or (1/6) differs in 52 samples @00:12:38
2 | (6/6) Accurately ripped
3 | (6/6) Accurately ripped
4 | (6/6) Accurately ripped
5 | (6/6) Accurately ripped
6 | (6/6) Accurately ripped
7 | (6/6) Accurately ripped
8 | (6/6) Accurately ripped
9 | (6/6) Accurately ripped
10 | (6/6) Accurately ripped
11 | (6/6) Accurately ripped
12 | (6/6) Accurately ripped
13 | (6/6) Accurately ripped
14 | (6/6) Accurately ripped
15 | (6/6) Accurately ripped
16 | (6/6) Accurately ripped
17 | (6/6) Accurately ripped
18 | (6/6) Accurately ripped
19 | (6/6) Accurately ripped
20 | (6/6) Accurately ripped
21 | (5/6) Accurately ripped
22 | (6/6) Accurately ripped
23 | (6/6) Accurately ripped
==== Log checksum 092EBC79CE9C007C3DE1872BD6EB989B5670E1D2E7AC562FE82458AF7F9E2B3B ====

CD2

Exact Audio Copy V1.0 beta 6 from 9. April 2015
EAC extraction logfile from 29. September 2015, 21:44
Horne_Welting_Vanzo_Von Stade_Ambrosian_Opera_Chor_Philh_Orch_De_Almeida / Thomas - Mignon, de Almeida CD2
Used drive : TSSTcorpCDDVDW SE-208AB Adapter: 1 ID: 2
Read mode : Secure
Utilize accurate stream : Yes
Defeat audio cache : Yes
Make use of C2 pointers : No
Read offset correction : 6
Overread into Lead-In and Lead-Out : No
Fill up missing offset samples with silence : Yes
Delete leading and trailing silent blocks : No
Null samples used in CRC calculations : Yes
Used interface : Native Win32 interface for Win NT & 2000
Used output format : Monkey's Audio Lossless Encoder
Selected bitrate : High Lossless Compression
Quality : High
Add ID3 tag : Yes
Command line compressor : C:\Program Files (x86)\Exact Audio Copy\MAC\MAC.exe
TOC of the extracted CD
Track | Start | Length | Start sector | End sector
---------------------------------------------------------
1 | 0:00.00 | 2:13.62 | 0 | 10036
2 | 2:13.62 | 1:40.05 | 10037 | 17541
3 | 3:53.67 | 3:37.23 | 17542 | 33839
4 | 7:31.15 | 2:42.12 | 33840 | 46001
5 | 10:13.27 | 5:10.13 | 46002 | 69264
6 | 15:23.40 | 2:10.40 | 69265 | 79054
7 | 17:34.05 | 5:53.67 | 79055 | 105596
8 | 23:27.72 | 3:01.48 | 105597 | 119219
9 | 26:29.45 | 4:07.12 | 119220 | 137756
10 | 30:36.57 | 4:12.00 | 137757 | 156656
11 | 34:48.57 | 1:27.15 | 156657 | 163196
12 | 36:15.72 | 1:06.08 | 163197 | 168154
13 | 37:22.05 | 2:18.50 | 168155 | 178554
14 | 39:40.55 | 2:02.02 | 178555 | 187706
15 | 41:42.57 | 4:56.38 | 187707 | 209944
16 | 46:39.20 | 2:13.47 | 209945 | 219966
17 | 48:52.67 | 4:11.48 | 219967 | 238839
18 | 53:04.40 | 1:14.07 | 238840 | 244396
19 | 54:18.47 | 0:47.03 | 244397 | 247924
20 | 55:05.50 | 4:59.17 | 247925 | 270366
21 | 60:04.67 | 4:13.05 | 270367 | 289346
Range status and errors
Selected range
Filename D:\EAC\Thomas - Mignon, de Almeida CD2.wav
Peak level 100.0 %
Extraction speed 2.1 X
Range quality 100.0 %
Test CRC 4A1B7CD3
Copy CRC 4A1B7CD3
Copy OK
No errors occurred
AccurateRip summary
Track 1 accurately ripped (confidence 4) [2B577C60] (AR v2)
Track 2 accurately ripped (confidence 4) [EA6B1DD7] (AR v2)
Track 3 accurately ripped (confidence 4) [A1AF20E6] (AR v2)
Track 4 accurately ripped (confidence 4) [B1483D11] (AR v2)
Track 5 accurately ripped (confidence 4) [C5328A8B] (AR v2)
Track 6 accurately ripped (confidence 4) [0E42180B] (AR v2)
Track 7 accurately ripped (confidence 4) [F5AD7061] (AR v2)
Track 8 accurately ripped (confidence 4) [EC409696] (AR v2)
Track 9 accurately ripped (confidence 4) [E9D2FC0E] (AR v2)
Track 10 accurately ripped (confidence 4) [562C5556] (AR v2)
Track 11 accurately ripped (confidence 4) [363E03D6] (AR v2)
Track 12 accurately ripped (confidence 4) [733240F7] (AR v2)
Track 13 accurately ripped (confidence 4) [AB5AC251] (AR v2)
Track 14 accurately ripped (confidence 4) [0F66BD52] (AR v2)
Track 15 accurately ripped (confidence 4) [D88A3E16] (AR v2)
Track 16 accurately ripped (confidence 4) [C03A7C3A] (AR v2)
Track 17 accurately ripped (confidence 4) [925DB301] (AR v2)
Track 18 accurately ripped (confidence 4) [443A1A3E] (AR v2)
Track 19 accurately ripped (confidence 4) [8E3D8165] (AR v2)
Track 20 accurately ripped (confidence 4) [D02B3261] (AR v2)
Track 21 accurately ripped (confidence 4) [73D2AB8A] (AR v2)
All tracks accurately ripped
End of status report
---- CUETools DB Plugin V2.1.6
[CTDB TOCID: .hwaQXsK3vxFcflLvgKzMvbz1I0-] found
Submit result: .hwaQXsK3vxFcflLvgKzMvbz1I0- has been confirmed
Track | CTDB Status
1 | (6/9) Accurately ripped
2 | (6/9) Accurately ripped
3 | (6/9) Accurately ripped
4 | (6/9) Accurately ripped
5 | (6/9) Accurately ripped
6 | (6/9) Accurately ripped
7 | (6/9) Accurately ripped
8 | (6/9) Accurately ripped
9 | (6/9) Accurately ripped
10 | (6/9) Accurately ripped
11 | (6/9) Accurately ripped
12 | (6/9) Accurately ripped
13 | (6/9) Accurately ripped
14 | (6/9) Accurately ripped
15 | (6/9) Accurately ripped
16 | (6/9) Accurately ripped
17 | (6/9) Accurately ripped
18 | (6/9) Accurately ripped
19 | (6/9) Accurately ripped
20 | (6/9) Accurately ripped
21 | (6/9) Accurately ripped
==== Log checksum C3F4E47EEE55503A008A72E843B19417BCEC4216871ED3C064974BA8FB7B60A6 ====

CD3

Exact Audio Copy V1.0 beta 6 from 9. April 2015
EAC extraction logfile from 29. September 2015, 21:07
Horne_Welting_Vanzo_Von Stade_Ambrosian_Opera_Chor_Philh_Orch_De_Almeida / Thomas - Mignon, de Almeida CD3
Used drive : TS8XDVDSTRANSCEND Adapter: 1 ID: 1
Read mode : Secure
Utilize accurate stream : Yes
Defeat audio cache : Yes
Make use of C2 pointers : No
Read offset correction : 6
Overread into Lead-In and Lead-Out : No
Fill up missing offset samples with silence : Yes
Delete leading and trailing silent blocks : No
Null samples used in CRC calculations : Yes
Used interface : Native Win32 interface for Win NT & 2000
Used output format : Monkey's Audio Lossless Encoder
Selected bitrate : High Lossless Compression
Quality : High
Add ID3 tag : Yes
Command line compressor : C:\Program Files (x86)\Exact Audio Copy\MAC\MAC.exe
TOC of the extracted CD
Track | Start | Length | Start sector | End sector
---------------------------------------------------------
1 | 0:00.00 | 3:26.17 | 0 | 15466
2 | 3:26.17 | 5:20.15 | 15467 | 39481
3 | 8:46.32 | 3:27.50 | 39482 | 55056
4 | 12:14.07 | 3:55.25 | 55057 | 72706
5 | 16:09.32 | 2:46.50 | 72707 | 85206
6 | 18:56.07 | 4:42.38 | 85207 | 106394
7 | 23:38.45 | 2:55.02 | 106395 | 119521
8 | 26:33.47 | 1:27.50 | 119522 | 126096
9 | 28:01.22 | 4:54.05 | 126097 | 148151
10 | 32:55.27 | 3:38.38 | 148152 | 164539
11 | 36:33.65 | 2:43.07 | 164540 | 176771
12 | 39:16.72 | 6:10.23 | 176772 | 204544
13 | 45:27.20 | 9:32.50 | 204545 | 247494
Range status and errors
Selected range
Filename D:\EAC\Thomas - Mignon, de Almeida CD3.wav
Peak level 87.6 %
Extraction speed 4.5 X
Range quality 100.0 %
Test CRC 6B2374BA
Copy CRC 6B2374BA
Copy OK
No errors occurred
AccurateRip summary
Track 1 accurately ripped (confidence 4) [42F1FB6A] (AR v2)
Track 2 accurately ripped (confidence 4) [AD94F37A] (AR v2)
Track 3 accurately ripped (confidence 4) [D60C8A1E] (AR v2)
Track 4 accurately ripped (confidence 4) [AC3F3423] (AR v2)
Track 5 accurately ripped (confidence 4) [91E89BBD] (AR v2)
Track 6 accurately ripped (confidence 4) [3B5763CF] (AR v2)
Track 7 accurately ripped (confidence 4) [048C6230] (AR v2)
Track 8 accurately ripped (confidence 4) [50EDA331] (AR v2)
Track 9 accurately ripped (confidence 4) [FB99B250] (AR v2)
Track 10 accurately ripped (confidence 4) [250BD156] (AR v2)
Track 11 accurately ripped (confidence 4) [ADF5D196] (AR v2)
Track 12 accurately ripped (confidence 4) [BE4682DC] (AR v2)
Track 13 accurately ripped (confidence 4) [7D5EF725] (AR v2)
All tracks accurately ripped
End of status report
---- CUETools DB Plugin V2.1.6
[CTDB TOCID: cxakIrBPLMJ1ZfVxrcuFbmC38TM-] found
Submit result: unrecognized or virtual drive
Track | CTDB Status
1 | (4/5) Accurately ripped, or (1/5) differs in 50 samples @00:12:47
2 | (5/5) Accurately ripped
3 | (5/5) Accurately ripped
4 | (5/5) Accurately ripped
5 | (5/5) Accurately ripped
6 | (5/5) Accurately ripped
7 | (5/5) Accurately ripped
8 | (5/5) Accurately ripped
9 | (5/5) Accurately ripped
10 | (5/5) Accurately ripped
11 | (5/5) Accurately ripped
12 | (5/5) Accurately ripped
13 | (5/5) Accurately ripped
==== Log checksum 65F1DAD653CC63D28123C5C75E22B3F9EBBE1519255DD62F17DCA06F0E0FDAFF ====

Содержание индексной карты (.CUE)

CD1

REM GENRE Opera
REM DATE 1978
REM DISCID 6A11BB17
REM COMMENT "ExactAudioCopy v1.0b6"
PERFORMER "Horne_Welting_Vanzo_Von Stade_Ambrosian_Opera_Chor_Philh_Orch_De_Almeida"
TITLE "Thomas - Mignon, de Almeida CD1"
FILE "Thomas - Mignon, de Almeida CD1.ape" WAVE
TRACK 01 AUDIO
TITLE "Act I: Overture"
PERFORMER "Horne_Welting_Vanzo_Von Stade_Ambrosian_Opera_Chor_Philh_Orch_De_Almeida"
ISRC USSM17700486
INDEX 01 00:00:00
TRACK 02 AUDIO
TITLE "Bons bourgeois et notable (Coro)"
PERFORMER "Horne_Welting_Vanzo_Von Stade_Ambrosian_Opera_Chor_Philh_Orch_De_Almeida"
ISRC USSM17700487
INDEX 01 08:03:67
TRACK 03 AUDIO
TITLE "Fugitif et tremblant (Lothario)"
PERFORMER "Horne_Welting_Vanzo_Von Stade_Ambrosian_Opera_Chor_Philh_Orch_De_Almeida"
ISRC USSM17700488
INDEX 01 09:14:35
TRACK 04 AUDIO
TITLE "Place, amis, faites (Coro)"
PERFORMER "Horne_Welting_Vanzo_Von Stade_Ambrosian_Opera_Chor_Philh_Orch_De_Almeida"
ISRC USSM17700489
INDEX 01 14:02:55
TRACK 05 AUDIO
TITLE "Laerte, ami Laerte"
PERFORMER "Horne_Welting_Vanzo_Von Stade_Ambrosian_Opera_Chor_Philh_Orch_De_Almeida"
ISRC USSM17700490
INDEX 01 15:38:57
TRACK 06 AUDIO
TITLE "Pour gagner maintenant"
PERFORMER "Horne_Welting_Vanzo_Von Stade_Ambrosian_Opera_Chor_Philh_Orch_De_Almeida"
ISRC USSM17700491
INDEX 01 19:56:55
TRACK 07 AUDIO
TITLE "Hola, coquin! Arrete"
PERFORMER "Horne_Welting_Vanzo_Von Stade_Ambrosian_Opera_Chor_Philh_Orch_De_Almeida"
ISRC USSM17700492
INDEX 01 24:04:60
TRACK 08 AUDIO
TITLE "Quel est, je veux le savoir"
PERFORMER "Horne_Welting_Vanzo_Von Stade_Ambrosian_Opera_Chor_Philh_Orch_De_Almeida"
ISRC USSM17700493
INDEX 01 25:07:57
TRACK 09 AUDIO
TITLE "Monsieur"
PERFORMER "Horne_Welting_Vanzo_Von Stade_Ambrosian_Opera_Chor_Philh_Orch_De_Almeida"
ISRC USSM17700494
INDEX 01 29:44:65
TRACK 10 AUDIO
TITLE "Oui, je veux par le monde (Wilhem)"
PERFORMER "Horne_Welting_Vanzo_Von Stade_Ambrosian_Opera_Chor_Philh_Orch_De_Almeida"
ISRC USSM17700495
INDEX 01 31:48:35
TRACK 11 AUDIO
TITLE "J'aime votre gaite"
PERFORMER "Horne_Welting_Vanzo_Von Stade_Ambrosian_Opera_Chor_Philh_Orch_De_Almeida"
ISRC USSM17700496
INDEX 01 36:28:52
TRACK 12 AUDIO
TITLE "Eh quoi!"
PERFORMER "Horne_Welting_Vanzo_Von Stade_Ambrosian_Opera_Chor_Philh_Orch_De_Almeida"
ISRC USSM17700497
INDEX 01 38:08:57
TRACK 13 AUDIO
TITLE "De mon ami"
PERFORMER "Horne_Welting_Vanzo_Von Stade_Ambrosian_Opera_Chor_Philh_Orch_De_Almeida"
ISRC USSM17700498
INDEX 01 43:05:07
TRACK 14 AUDIO
TITLE "Demain, dis-tu?"
PERFORMER "Horne_Welting_Vanzo_Von Stade_Ambrosian_Opera_Chor_Philh_Orch_De_Almeida"
ISRC USSM17700499
INDEX 01 44:28:32
TRACK 15 AUDIO
TITLE "Dis-moi de quelle"
PERFORMER "Horne_Welting_Vanzo_Von Stade_Ambrosian_Opera_Chor_Philh_Orch_De_Almeida"
ISRC USSM17700575
INDEX 01 46:25:60
TRACK 16 AUDIO
TITLE "Connais-tu le pays (Mignon)"
PERFORMER "Horne_Welting_Vanzo_Von Stade_Ambrosian_Opera_Chor_Philh_Orch_De_Almeida"
ISRC USSM17700500
INDEX 01 46:59:15
TRACK 17 AUDIO
TITLE "Ce pays enchante"
PERFORMER "Horne_Welting_Vanzo_Von Stade_Ambrosian_Opera_Chor_Philh_Orch_De_Almeida"
ISRC USSM17700501
INDEX 01 53:06:45
TRACK 18 AUDIO
TITLE "Legeres hirondelles"
PERFORMER "Horne_Welting_Vanzo_Von Stade_Ambrosian_Opera_Chor_Philh_Orch_De_Almeida"
ISRC USSM17700502
INDEX 01 55:11:22
TRACK 19 AUDIO
TITLE "Comment! c'est vous?"
PERFORMER "Horne_Welting_Vanzo_Von Stade_Ambrosian_Opera_Chor_Philh_Orch_De_Almeida"
ISRC USSM17700503
INDEX 01 58:13:22
TRACK 20 AUDIO
TITLE "Pourquoi pas!"
PERFORMER "Horne_Welting_Vanzo_Von Stade_Ambrosian_Opera_Chor_Philh_Orch_De_Almeida"
ISRC USSM17700504
INDEX 01 62:32:27
TRACK 21 AUDIO
TITLE "Viens, la libre vie est douce"
PERFORMER "Horne_Welting_Vanzo_Von Stade_Ambrosian_Opera_Chor_Philh_Orch_De_Almeida"
ISRC USSM17700505
INDEX 01 64:25:25
TRACK 22 AUDIO
TITLE "En route, amis, plions (Coro)"
PERFORMER "Horne_Welting_Vanzo_Von Stade_Ambrosian_Opera_Chor_Philh_Orch_De_Almeida"
ISRC USSM17700506
INDEX 01 66:43:00
TRACK 23 AUDIO
TITLE "Qui m'aime me suive"
PERFORMER "Horne_Welting_Vanzo_Von Stade_Ambrosian_Opera_Chor_Philh_Orch_De_Almeida"
ISRC USSM17700507
INDEX 01 69:02:32

CD2

REM GENRE Opera
REM DATE 1978
REM DISCID 140F1115
REM COMMENT "ExactAudioCopy v1.0b6"
PERFORMER "Horne_Welting_Vanzo_Von Stade_Ambrosian_Opera_Chor_Philh_Orch_De_Almeida"
TITLE "Thomas - Mignon, de Almeida CD2"
FILE "Thomas - Mignon, de Almeida CD2.ape" WAVE
TRACK 01 AUDIO
TITLE "Entr'acte"
PERFORMER "Horne_Welting_Vanzo_Von Stade_Ambrosian_Opera_Chor_Philh_Orch_De_Almeida"
ISRC USSM17700508
INDEX 01 00:00:00
TRACK 02 AUDIO
TITLE "A merveille, j'en ris d'avance"
PERFORMER "Horne_Welting_Vanzo_Von Stade_Ambrosian_Opera_Chor_Philh_Orch_De_Almeida"
ISRC USSM17700509
INDEX 01 02:13:62
TRACK 03 AUDIO
TITLE "Ecoutez! Ecoutez!"
PERFORMER "Horne_Welting_Vanzo_Von Stade_Ambrosian_Opera_Chor_Philh_Orch_De_Almeida"
ISRC USSM17700510
INDEX 01 03:53:67
TRACK 04 AUDIO
TITLE "Plus de soucis, Mignon!"
PERFORMER "Horne_Welting_Vanzo_Von Stade_Ambrosian_Opera_Chor_Philh_Orch_De_Almeida"
ISRC USSM17700511
INDEX 01 07:31:15
TRACK 05 AUDIO
TITLE "Ah! je crois entendre (Wilhem, Philine)"
PERFORMER "Horne_Welting_Vanzo_Von Stade_Ambrosian_Opera_Chor_Philh_Orch_De_Almeida"
ISRC USSM17700576
INDEX 01 10:13:27
TRACK 06 AUDIO
TITLE "Me voila seule (Mignon)"
PERFORMER "Horne_Welting_Vanzo_Von Stade_Ambrosian_Opera_Chor_Philh_Orch_De_Almeida"
ISRC USSM17700512
INDEX 01 15:23:40
TRACK 07 AUDIO
TITLE "Je connais un pauvre"
PERFORMER "Horne_Welting_Vanzo_Von Stade_Ambrosian_Opera_Chor_Philh_Orch_De_Almeida"
ISRC USSM17700513
INDEX 01 17:34:05
TRACK 08 AUDIO
TITLE "C'est moi, jai tout brise (Frederic)"
PERFORMER "Horne_Welting_Vanzo_Von Stade_Ambrosian_Opera_Chor_Philh_Orch_De_Almeida"
ISRC USSM17700514
INDEX 01 23:27:72
TRACK 09 AUDIO
TITLE "Mignon! J'ai promis"
PERFORMER "Horne_Welting_Vanzo_Von Stade_Ambrosian_Opera_Chor_Philh_Orch_De_Almeida"
ISRC USSM17700515
INDEX 01 26:29:45
TRACK 10 AUDIO
TITLE "Adieu, Mignon! Courage! (Wilhem)"
PERFORMER "Horne_Welting_Vanzo_Von Stade_Ambrosian_Opera_Chor_Philh_Orch_De_Almeida"
ISRC USSM17700516
INDEX 01 30:36:57
TRACK 11 AUDIO
TITLE "Merci de tes bontes"
PERFORMER "Horne_Welting_Vanzo_Von Stade_Ambrosian_Opera_Chor_Philh_Orch_De_Almeida"
ISRC USSM17700517
INDEX 01 34:48:57
TRACK 12 AUDIO
TITLE "Demain je serai"
PERFORMER "Horne_Welting_Vanzo_Von Stade_Ambrosian_Opera_Chor_Philh_Orch_De_Almeida"
ISRC USSM17700517
INDEX 01 36:15:72
TRACK 13 AUDIO
TITLE "Vous disiez"
PERFORMER "Horne_Welting_Vanzo_Von Stade_Ambrosian_Opera_Chor_Philh_Orch_De_Almeida"
ISRC USSM17700578
INDEX 01 37:22:05
TRACK 14 AUDIO
TITLE "Interlude"
PERFORMER "Horne_Welting_Vanzo_Von Stade_Ambrosian_Opera_Chor_Philh_Orch_De_Almeida"
ISRC USSM17700578
INDEX 01 39:40:55
TRACK 15 AUDIO
TITLE "Elle est la (Mignon)"
PERFORMER "Horne_Welting_Vanzo_Von Stade_Ambrosian_Opera_Chor_Philh_Orch_De_Almeida"
ISRC USSM17700519
INDEX 01 41:42:57
TRACK 16 AUDIO
TITLE "Ciel! quentands-je?"
PERFORMER "Horne_Welting_Vanzo_Von Stade_Ambrosian_Opera_Chor_Philh_Orch_De_Almeida"
ISRC USSM17700521
INDEX 01 46:39:20
TRACK 17 AUDIO
TITLE "As-tu souffert"
PERFORMER "Horne_Welting_Vanzo_Von Stade_Ambrosian_Opera_Chor_Philh_Orch_De_Almeida"
ISRC USSM17700522
INDEX 01 48:52:67
TRACK 18 AUDIO
TITLE "Ah! Brava! La Philine"
PERFORMER "Horne_Welting_Vanzo_Von Stade_Ambrosian_Opera_Chor_Philh_Orch_De_Almeida"
ISRC USSM17700523
INDEX 01 53:04:40
TRACK 19 AUDIO
TITLE "Oui! Pour ce soi (Philine)"
PERFORMER "Horne_Welting_Vanzo_Von Stade_Ambrosian_Opera_Chor_Philh_Orch_De_Almeida"
ISRC USSM17700524
INDEX 01 54:18:47
TRACK 20 AUDIO
TITLE "Je suis Titani"
PERFORMER "Horne_Welting_Vanzo_Von Stade_Ambrosian_Opera_Chor_Philh_Orch_De_Almeida"
ISRC USSM17700577
INDEX 01 55:05:50
TRACK 21 AUDIO
TITLE "Ah! Vous voila!"
PERFORMER "Horne_Welting_Vanzo_Von Stade_Ambrosian_Opera_Chor_Philh_Orch_De_Almeida"
ISRC USSM17700525
INDEX 01 60:04:67

CD3

REM GENRE Opera
REM DATE 1978
REM DISCID C50CE30D
REM COMMENT "ExactAudioCopy v1.0b6"
PERFORMER "Horne_Welting_Vanzo_Von Stade_Ambrosian_Opera_Chor_Philh_Orch_De_Almeida"
TITLE "Thomas - Mignon, de Almeida CD3"
FILE "Thomas - Mignon, de Almeida CD3.ape" WAVE
TRACK 01 AUDIO
TITLE "Ah! Au souffle leger (Coro)"
PERFORMER "Horne_Welting_Vanzo_Von Stade_Ambrosian_Opera_Chor_Philh_Orch_De_Almeida"
ISRC USSM17700526
INDEX 01 00:00:00
TRACK 02 AUDIO
TITLE "De son coeur (Lothario)"
PERFORMER "Horne_Welting_Vanzo_Von Stade_Ambrosian_Opera_Chor_Philh_Orch_De_Almeida"
ISRC USSM17700526
INDEX 01 03:26:17
TRACK 03 AUDIO
TITLE "Vous verrez de cette fenetre"
PERFORMER "Horne_Welting_Vanzo_Von Stade_Ambrosian_Opera_Chor_Philh_Orch_De_Almeida"
ISRC USSM17700528
INDEX 01 08:46:32
TRACK 04 AUDIO
TITLE "Elle ne croyait (Wilhem)"
PERFORMER "Horne_Welting_Vanzo_Von Stade_Ambrosian_Opera_Chor_Philh_Orch_De_Almeida"
ISRC USSM17700529
INDEX 01 12:14:07
TRACK 05 AUDIO
TITLE "Signor!..Que me veux-tu?"
PERFORMER "Horne_Welting_Vanzo_Von Stade_Ambrosian_Opera_Chor_Philh_Orch_De_Almeida"
ISRC USSM17700530
INDEX 01 16:09:32
TRACK 06 AUDIO
TITLE "Je t'appelais! (Wilhem, Mignon)"
PERFORMER "Horne_Welting_Vanzo_Von Stade_Ambrosian_Opera_Chor_Philh_Orch_De_Almeida"
ISRC USSM17700531
INDEX 01 18:56:07
TRACK 07 AUDIO
TITLE "Je suis Titania"
PERFORMER "Horne_Welting_Vanzo_Von Stade_Ambrosian_Opera_Chor_Philh_Orch_De_Almeida"
ISRC USSM17700532
INDEX 01 23:38:45
TRACK 08 AUDIO
TITLE "Ah! malheureuse enfant!"
PERFORMER "Horne_Welting_Vanzo_Von Stade_Ambrosian_Opera_Chor_Philh_Orch_De_Almeida"
ISRC USSM17700533
INDEX 01 26:33:47
TRACK 09 AUDIO
TITLE "Mignon! Wilhelm!"
PERFORMER "Horne_Welting_Vanzo_Von Stade_Ambrosian_Opera_Chor_Philh_Orch_De_Almeida"
ISRC USSM17700534
INDEX 01 28:01:22
TRACK 10 AUDIO
TITLE "O vierge Marie"
PERFORMER "Horne_Welting_Vanzo_Von Stade_Ambrosian_Opera_Chor_Philh_Orch_De_Almeida"
ISRC USSM17700535
INDEX 01 32:55:27
TRACK 11 AUDIO
TITLE "Elle revit!"
PERFORMER "Horne_Welting_Vanzo_Von Stade_Ambrosian_Opera_Chor_Philh_Orch_De_Almeida"
ISRC USSM17700536
INDEX 01 36:33:65
TRACK 12 AUDIO
TITLE "Appendix I: A merveille! J'en ris d'avance (Philine)"
PERFORMER "Horne_Welting_Vanzo_Von Stade_Ambrosian_Opera_Chor_Philh_Orch_De_Almeida"
ISRC USSM17700537
INDEX 00 39:09:05
INDEX 01 39:16:72
TRACK 13 AUDIO
TITLE "Appendix II: Dansons, dansons amis dansons"
PERFORMER "Horne_Welting_Vanzo_Von Stade_Ambrosian_Opera_Chor_Philh_Orch_De_Almeida"
ISRC USSM17700538
INDEX 00 45:21:70
INDEX 01 45:27:20
Доп. информация:
With Mignon (premiered at the Opéra Comique in 1866), Thomas achieved his first great acclaim outside, as well as within, France.
Goethe's celebrated Wilhelm Meister had provided inspiration for a highly sentimentalized libretto; Marie Galli-Marié (1840–1905), it was said , "had modelled her conception of the part upon the well-known picture by Ary Scheffer".
Mignon was a success all over Europe, to audiences who had embraced Charles Gounod's indirectly Goethe-inspired Faust (1859); and in Paris Mignon received more than a thousand performances by 1894, thereby becoming one of the most successful operas in French history.
It is still heard sometimes today, more often in the form of extracts for concert use, or in recordings, than in complete stagings.
One of its arias, "Connais-tu le pays", was for generations among the most famous operatic excerpts by any composer.
Thomas turned to Shakespeare again for his Hamlet (Paris Opera, 1868), with a libretto by the seasoned team of Jules Barbier and Michel Carré.
This opera has a strong, dramatic libretto, although it closes with a traditional (and, surprising for Hamlet) happy ending.
It enjoyed a long vogue, and like Mignon it continues to have a certain following; during 2010 it was heard at New York's Metropolitan Opera.
His last opera, Françoise de Rimini (Paris Opéra, 1882) based on a passage from Dante's Inferno, failed to stay in the repertoire.
Seven years later La tempête, a ballet (and yet another treatment of a Shakespeare play, this time The Tempest), was produced at the Opéra, again with little effect.
He died in 1896. Massenet had hopes of succeeding him in the job of Conservatoire director, abandoning this plan only when told by the government that the post would no longer carry lifelong tenure.
The man who got the job was not Massenet but, rather, organist-composer Théodore Dubois.
Thomas was the first musician to ever be awarded the Grand-Croix de la Légion d'honneur (which he received in May 1894).



Показать сообщения:    

Текущее время: 03-Дек 09:49

Часовой пояс: UTC + 3


Вы не можете начинать темы
Вы не можете отвечать на сообщения
Вы не можете редактировать свои сообщения
Вы не можете удалять свои сообщения
Вы не можете голосовать в опросах
Вы не можете прикреплять файлы к сообщениям
Вы не можете скачивать файлы