(Classical) Edward Elgar, Zoltan Kodaly, Boris Blacher - Enigma Variations, Variations on a Hungarian Folk Song "The Peacock", Variations on a theme of Paganini - Georg Solti, Vienna Philharmonic - 1997, FLAC (image+.cue) lossless


 

[Цитировать]

Edward Elgar, Zoltan Kodaly, Boris Blacher - Enigma Variations, The Peacock, Paganini Variations
Жанр: Classical
Страна-производитель диска: USA
Год издания диска: 1997
Издатель (лейбл): Decca
Номер по каталогу: 452 853-2
Дата записи: 1996
Аудиокодек: FLAC
Тип рипа: image+.cue
Битрейт аудио: lossless
Продолжительность: 01:07:41
Источник: собственный рип
Наличие сканов в содержимом раздачи: да
Треклист:
Zoltán Kodály
01. Variations on a Hungarian Folk Song for Orchestra, "The Peacock" (24:05)
Boris Blacher
02. Variations on a theme of Paganini, Op.26 (14:14)
Edward Elgar
Variations on an Original Theme, Op.36 "Enigma"
03. Thema: Andante (1:37)
04. Variation I: (C.A.E.) L'istesso tempo (1:45)
05. Variation II: (H.D.S-P.) Allegro (0:45)
06. Variation III: (R.B.T.) Allegretto (1:21)
07. Variation IV: (W.M.B.) Allegro di molto (0:31)
08. Variation V: (R.P.A.) Moderato (1:54)
09. Variation VI: (Ysobel) Andantino (1:20)
10. Variation VII: (Troyte) Presto (1:00)
11. Variation VIII: (W.N.) Allegretto (1:40)
12. Variation IX: (Nimrod) Adagio (3:08)
13. Variation X: (Dorabella) Intermezzo: Allegretto (2:35)
14. Variation XI: (G.R.S.) Allegro di molto (1:00)
15. Variation XII: (B.G.N.) Andante (2:46)
16. Variation XIII: (***) Romanza: Moderato (2:39)
17. Variation XIV: (E.D.U.) Finale: Allegro - Presto (5:03)
Исполнители:
Georg Solti
Vienna Philharmonic Orchestra

Лог создания рипа

Exact Audio Copy V1.0 beta 3 from 29. August 2011
Отчёт EAC об извлечении, выполненном 30. сентября 2015, 23:53
Sir Georg Solti & Wiener Philharmoniker / Edward Elgar, Zoltan Kodaly, Boris Blacher - Enigma Variations, Peacock Variations, Paganini Variations
Дисковод: ASUS DRW-1814BL Adapter: 3 ID: 5
Режим чтения : Достоверность
Использование точного потока : Да
Отключение кэша аудио : Да
Использование указателей C2 : Нет
Коррекция смещения при чтении : 6
Способность читать области Lead-in и Lead-out : Нет
Заполнение пропущенных сэмплов тишиной : Да
Удаление блоков с тишиной в начале и конце : Нет
При вычислениях CRC использовались нулевые сэмплы : Да
Интерфейс : Встроенный Win32-интерфейс для Win NT/2000
Выходной формат : Пользовательский кодировщик
Выбранный битрейт : 128 kBit/s
Качество : Высокий
Добавление ID3-тега : Нет
Утилита сжатия : C:\Program Files\Exact Audio Copy\Flac\flac.exe
Дополнительные параметры : -V -8 -T "Date=%year%" -T "Genre=%genre%" %source%
TOC извлечённого CD
Трек | Старт | Длительность | Начальный сектор | Конечный сектор
---------------------------------------------------------------------
1 | 0:00.32 | 24:15.28 | 32 | 109184
2 | 24:15.60 | 14:23.00 | 109185 | 173909
3 | 38:38.60 | 1:36.42 | 173910 | 181151
4 | 40:15.27 | 1:45.05 | 181152 | 189031
5 | 42:00.32 | 0:45.00 | 189032 | 192406
6 | 42:45.32 | 1:21.28 | 192407 | 198509
7 | 44:06.60 | 0:30.47 | 198510 | 200806
8 | 44:37.32 | 1:53.53 | 200807 | 209334
9 | 46:31.10 | 1:20.22 | 209335 | 215356
10 | 47:51.32 | 1:00.00 | 215357 | 219856
11 | 48:51.32 | 1:40.08 | 219857 | 227364
12 | 50:31.40 | 3:07.47 | 227365 | 241436
13 | 53:39.12 | 2:34.50 | 241437 | 253036
14 | 56:13.62 | 0:59.73 | 253037 | 257534
15 | 57:13.60 | 2:45.47 | 257535 | 269956
16 | 59:59.32 | 2:39.00 | 269957 | 281881
17 | 62:38.32 | 5:03.00 | 281882 | 304606
Характеристики диапазона извлечения и сообщения об ошибках
Выбранный диапазон
Имя файла C:\Documents and Settings\biotox\Рабочий стол\Новая папка (3)\Sir Georg Solti & Wiener Philharmoniker - Edward Elgar, Zoltan Kodaly, Boris Blacher - Enigma Variations, Peacock Variations, Paganini Variations.wav
Пиковый уровень 100.0 %
Скорость извлечения 4.9 X
Качество диапазона 100.0 %
CRC теста 77588AF3
CRC копии 77588AF3
Копирование... OK
Ошибок не произошло
AccurateRip: сводка
Трек 1 : извлечено точно (доверие 12) [A68CA029] (AR v2)
Трек 2 : извлечено точно (доверие 12) [ABFACAC5] (AR v2)
Трек 3 : извлечено точно (доверие 12) [484122CB] (AR v2)
Трек 4 : извлечено точно (доверие 12) [7EC8A936] (AR v2)
Трек 5 : извлечено точно (доверие 12) [BE591EC7] (AR v2)
Трек 6 : извлечено точно (доверие 12) [420C8B58] (AR v2)
Трек 7 : извлечено точно (доверие 12) [8F5EEF9F] (AR v2)
Трек 8 : извлечено точно (доверие 12) [BD82BE23] (AR v2)
Трек 9 : извлечено точно (доверие 12) [FD952FBC] (AR v2)
Трек 10 : извлечено точно (доверие 12) [6CA2EFD3] (AR v2)
Трек 11 : извлечено точно (доверие 12) [578381FA] (AR v2)
Трек 12 : извлечено точно (доверие 12) [3921D58E] (AR v2)
Трек 13 : извлечено точно (доверие 12) [5A7B7A0B] (AR v2)
Трек 14 : извлечено точно (доверие 12) [3335FB23] (AR v2)
Трек 15 : извлечено точно (доверие 12) [0BFE83A1] (AR v2)
Трек 16 : извлечено точно (доверие 12) [64B179B1] (AR v2)
Трек 17 : извлечено точно (доверие 12) [3B712F41] (AR v2)
Все треки извлечены точно
Конец отчёта
==== Контрольная сумма отчёта FEB5F71FD469A854C37F26ADF034F1D9618D23B65EB72CEE8342D681AE6F16CA ====

Замер динамического диапазона

foobar2000 1.2.9 / Замер динамического диапазона (DR) 1.1.1
Дата отчёта: 2015-09-30 23:57:14
--------------------------------------------------------------------------------
Анализ: Sir Georg Solti & Wiener Philharmoniker / Edward Elgar, Zoltan Kodaly, Boris Blacher - Enigma Variations, Peacock Varia...
--------------------------------------------------------------------------------
DR Пики RMS Продолжительность трека
--------------------------------------------------------------------------------
DR16 -0.39 дБ -23.36 дБ 24:15 01-Kodaly : Variations on a Hungarian Folksong (The Peacock)
DR16 -0.57 дБ -23.37 дБ 14:23 02-Boris Blacher : Variations on a theme of Paganini, op.26
DR11 -19.09 дБ -36.05 дБ 1:37 03-Elgar : Enigma Variations, op.36 - Thema: Andante
DR12 -8.38 дБ -28.62 дБ 1:45 04-Elgar : Enigma Variations, op.36 - Variation I: (C.A.E.) L'istesso tempo
DR11 -15.34 дБ -33.47 дБ 0:45 05-Elgar : Enigma Variations, op.36 - Variation II: (H.D.S-P.) Allegro
DR11 -13.38 дБ -31.64 дБ 1:21 06-Elgar : Enigma Variations, op.36 - Variation III: (R.B.T.) Allegretto
DR10 -4.36 дБ -21.81 дБ 0:31 07-Elgar : Enigma Variations, op.36 - Variation IV: (W.M.B.) Allegro di molto
DR11 -13.40 дБ -30.70 дБ 1:54 08-Elgar : Enigma Variations, op.36 - Variation V: (R.P.A.) Moderato
DR11 -16.90 дБ -34.89 дБ 1:20 09-Elgar : Enigma Variations, op.36 - Variation VI: (Ysobel) Andantino
DR14 -2.53 дБ -20.97 дБ 1:00 10-Elgar : Enigma Variations, op.36 - Variation VII: (Troyte) Presto
DR13 -9.88 дБ -29.45 дБ 1:40 11-Elgar : Enigma Variations, op.36 - Variation VIII: (W.N.) Allegretto
DR12 -2.04 дБ -22.69 дБ 3:08 12-Elgar : Enigma Variations, op.36 - Variation IX: (Nimrod) Adagio
DR12 -19.66 дБ -38.21 дБ 2:35 13-Elgar : Enigma Variations, op.36 - Variation X: (Dorabella) Intermezzo: Alleg...
DR14 -3.79 дБ -22.36 дБ 1:00 14-Elgar : Enigma Variations, op.36 - Variation XI: (G.R.S.) Allegro di molto
DR12 -11.62 дБ -31.45 дБ 2:46 15-Elgar : Enigma Variations, op.36 - Variation XII: (B.G.N.) Andante
DR12 -10.98 дБ -33.52 дБ 2:39 16-Elgar : Enigma Variations, op.36 - Variation XIII: (***) Romanza: Moderato
DR14 0.00 дБ -19.46 дБ 5:03 17-Elgar : Enigma Variations, op.36 - Variation XIV: (E.D.U.) Finale: Allegro - ...
--------------------------------------------------------------------------------
Количество треков: 17
Реальные значения DR: DR13
Частота: 44100 Гц
Каналов: 2
Разрядность: 16
Битрейт: 577 кбит/с
Кодек: FLAC
================================================================================



Показать сообщения:    

Текущее время: 06-Дек 17:08

Часовой пояс: UTC + 3


Вы не можете начинать темы
Вы не можете отвечать на сообщения
Вы не можете редактировать свои сообщения
Вы не можете удалять свои сообщения
Вы не можете голосовать в опросах
Вы не можете прикреплять файлы к сообщениям
Вы не можете скачивать файлы