(Opera) Thomas - Hamlet (Sutherland, Morris, Conrad, Milnes, Gelling - Welsh National Opera Chorus & Orchestra, Bonynge) - 1993, APE (image+.cue) lossless


 

[Цитировать]

Ambroise Thomas - Hamlet
Жанр: Opera
Страна-производитель диска: UK
Год издания диска: 1993
Издатель (лейбл): Decca
Номер по каталогу: 433 857-2
Дата записи: 1983
Аудиокодек: APE
Тип рипа: image+.cue
Битрейт аудио: lossless
Продолжительность: 44'53+75'06+51'12
Источник: скачано с
Наличие сканов в содержимом раздачи: да
Треклист:

CD1

1. Prelude
3. Que nos chants montent jusqu'aux cieux
3. Vains regrets! Tendresse ephemere
4. Salut au prince Hamlet
5. Prelude
6. Viendra-t-il
7. Spectre inferna! Image veneree

CD2

1. Entracte
2. Sa main depuis hier
3. Je croyais pres de vous trouver mon fils
4. L'ame de votre fils est a jamais troublee
5. Voici les histrions mandes par vous
6. O vin, dissipe la tristesse
7. Marche danoise... Belle, permettez-nous
8. C'est le vieux Roi Gonzague
9. O mortelle offense
10. Entracte
11. Mais qui donc ose me suivre
12. Je t'implore, o mon frere
13. Le voila! Je veux lire enfin dans sa pensee
14. Hamlet, ma douleur est immense
15. Pardonne, helas! ta voix m'accable

CD3

1. Entracte
2. Danse villageoise
3. Pas des chasseurs
4. Valse-Mazurka
5. Scene du bouquet
6.0 A vos jeux, mes amis
7. Le voila! Je crois l'entendre
8. Dame ou prince, homme ou femme
9. La fatigue alourdit mes pas
10. Mais qui marche dans l'ombre
11. Ecoute! quel est ce bruit de pas
Исполнители:
Ambroise Thomas - Hamlet
Grand Opera in five acts
Libretto by Michel Carré and Jules Barbier, based on a French adaptation by Alexandre Dumas, père, and Paul Meurice of William Shakespeare's play Hamlet.
Ophélie: Joan Sutherland, soprano
Claudius: James Morris, bass
Gertrud: Barbara Conrad, mezzo-soprano
Hamlet: Sherrill Milnes, baritone
Horatio: Philip Gelling, bass
Laërte: Gösta Winbergh, tenor
Marcellus: Keith Lewis, tenor
Polonius: Arwel Huw Morgan, bass
Welsh National Opera Chorus
Welsh National Opera Orchestra
Conductor: Richard Bonynge

Лог создания рипа

CD1

Exact Audio Copy V1.0 beta 6 from 9. April 2015
EAC extraction logfile from 29. September 2015, 1:31
Sutherland, Milnes, Morris, Conrad - Welsh National Opera, Bonynge / Thomas - Hamlet, Bonynge CD1
Used drive : HL-DT-STDVDRAM GH22NS50 Adapter: 1 ID: 0
Read mode : Secure
Utilize accurate stream : Yes
Defeat audio cache : Yes
Make use of C2 pointers : No
Read offset correction : 667
Overread into Lead-In and Lead-Out : No
Fill up missing offset samples with silence : Yes
Delete leading and trailing silent blocks : No
Null samples used in CRC calculations : Yes
Used interface : Native Win32 interface for Win NT & 2000
Used output format : Monkey's Audio Lossless Encoder
Selected bitrate : High Lossless Compression
Quality : High
Add ID3 tag : Yes
Command line compressor : C:\Program Files (x86)\Exact Audio Copy\MAC\MAC.exe
TOC of the extracted CD
Track | Start | Length | Start sector | End sector
---------------------------------------------------------
1 | 0:00.32 | 3:18.40 | 32 | 14921
2 | 3:18.72 | 7:01.65 | 14922 | 46561
3 | 10:20.62 | 8:19.55 | 46562 | 84041
4 | 18:40.42 | 7:53.40 | 84042 | 119556
5 | 26:34.07 | 4:29.10 | 119557 | 139741
6 | 31:03.17 | 4:18.13 | 139742 | 159104
7 | 35:21.30 | 9:24.40 | 159105 | 201444
Range status and errors
Selected range
Filename D:\EAC\Thomas - Hamlet, Bonynge CD1.wav
Peak level 95.0 %
Extraction speed 1.8 X
Range quality 99.9 %
Test CRC 39B424C5
Copy CRC 39B424C5
Copy OK
No errors occurred
AccurateRip summary
Track 1 cannot be verified as accurate (confidence 3) [1D9BC4C5], AccurateRip returned [5009139C] (AR v2)
Track 2 cannot be verified as accurate (confidence 3) [AF96E6F2], AccurateRip returned [75D9A6A6] (AR v2)
Track 3 cannot be verified as accurate (confidence 3) [1167F48C], AccurateRip returned [FAC1DC50] (AR v2)
Track 4 cannot be verified as accurate (confidence 3) [DE367A49], AccurateRip returned [C23946FB] (AR v2)
Track 5 cannot be verified as accurate (confidence 3) [F848A1FB], AccurateRip returned [0DB8EDFF] (AR v2)
Track 6 cannot be verified as accurate (confidence 3) [158E834E], AccurateRip returned [C4036B3E] (AR v2)
Track 7 cannot be verified as accurate (confidence 3) [AEB95B04], AccurateRip returned [8FACBF36] (AR v2)
No tracks could be verified as accurate
You may have a different pressing from the one(s) in the database
End of status report
---- CUETools DB Plugin V2.1.6
[CTDB TOCID: ny1r8tTXq.5Za81dEChd_qLZsU8-] found
Submit result: ny1r8tTXq.5Za81dEChd_qLZsU8- has been confirmed
Track | CTDB Status
1 | (1/1) Accurately ripped
2 | (1/1) Accurately ripped
3 | (1/1) Accurately ripped
4 | (1/1) Accurately ripped
5 | (1/1) Accurately ripped
6 | (1/1) Accurately ripped
7 | (1/1) Accurately ripped
==== Log checksum 421CC5AA9CCDA64E4DD06B3F71057C6311B7BDF80F7D4B08A9E1168FA15B89AD ====

CD2

Exact Audio Copy V1.0 beta 6 from 9. April 2015
EAC extraction logfile from 29. September 2015, 1:09
Sutherland, Milnes, Morris, Conrad - Welsh National Opera, Bonynge / Thomas - Hamlet, Bonynge CD2
Used drive : TSSTcorpCDDVDW SE-208AB Adapter: 1 ID: 2
Read mode : Secure
Utilize accurate stream : Yes
Defeat audio cache : Yes
Make use of C2 pointers : No
Read offset correction : 6
Overread into Lead-In and Lead-Out : No
Fill up missing offset samples with silence : Yes
Delete leading and trailing silent blocks : No
Null samples used in CRC calculations : Yes
Used interface : Native Win32 interface for Win NT & 2000
Used output format : Monkey's Audio Lossless Encoder
Selected bitrate : High Lossless Compression
Quality : High
Add ID3 tag : Yes
Command line compressor : C:\Program Files (x86)\Exact Audio Copy\MAC\MAC.exe
TOC of the extracted CD
Track | Start | Length | Start sector | End sector
---------------------------------------------------------
1 | 0:00.32 | 2:03.43 | 32 | 9299
2 | 2:04.00 | 7:56.02 | 9300 | 45001
3 | 10:00.02 | 4:51.13 | 45002 | 66839
4 | 14:51.15 | 5:54.40 | 66840 | 93429
5 | 20:45.55 | 3:35.65 | 93430 | 109619
6 | 24:21.45 | 3:33.35 | 109620 | 125629
7 | 27:55.05 | 4:25.35 | 125630 | 145539
8 | 32:20.40 | 4:39.55 | 145540 | 166519
9 | 37:00.20 | 3:56.25 | 166520 | 184244
10 | 40:56.45 | 5:33.17 | 184245 | 209236
11 | 46:29.62 | 1:24.43 | 209237 | 215579
12 | 47:54.30 | 4:41.22 | 215580 | 236676
13 | 52:35.52 | 8:54.23 | 236677 | 276749
14 | 61:30.00 | 7:23.02 | 276750 | 309976
15 | 68:53.02 | 6:13.65 | 309977 | 338016
Range status and errors
Selected range
Filename D:\EAC\Thomas - Hamlet, Bonynge CD2.wav
Peak level 93.0 %
Extraction speed 5.2 X
Range quality 99.9 %
Test CRC 325F65AF
Copy CRC 325F65AF
Copy OK
No errors occurred
AccurateRip summary
Track 1 cannot be verified as accurate (confidence 3) [95491210], AccurateRip returned [BEB3C502] (AR v2)
Track 2 cannot be verified as accurate (confidence 3) [3BFBBE0E], AccurateRip returned [32DEA5FA] (AR v2)
Track 3 cannot be verified as accurate (confidence 3) [BDB64B01], AccurateRip returned [0C668EA5] (AR v2)
Track 4 cannot be verified as accurate (confidence 3) [CFB4F843], AccurateRip returned [BB5F229C] (AR v2)
Track 5 cannot be verified as accurate (confidence 3) [D9CBE543], AccurateRip returned [1F91AD8F] (AR v2)
Track 6 cannot be verified as accurate (confidence 3) [C7948A4B], AccurateRip returned [D3C7B3AE] (AR v2)
Track 7 cannot be verified as accurate (confidence 3) [78BADEC5], AccurateRip returned [16EED7D8] (AR v2)
Track 8 cannot be verified as accurate (confidence 3) [0DE4B0CE], AccurateRip returned [53A4A5EA] (AR v2)
Track 9 cannot be verified as accurate (confidence 3) [A4F4CBBE], AccurateRip returned [8E603596] (AR v2)
Track 10 cannot be verified as accurate (confidence 3) [4573BD08], AccurateRip returned [4A615C5A] (AR v2)
Track 11 cannot be verified as accurate (confidence 3) [D43FE389], AccurateRip returned [FDA17781] (AR v2)
Track 12 cannot be verified as accurate (confidence 3) [E5B67A46], AccurateRip returned [6E81AF0E] (AR v2)
Track 13 cannot be verified as accurate (confidence 3) [B9AEFB81], AccurateRip returned [A12F01CE] (AR v2)
Track 14 cannot be verified as accurate (confidence 3) [DE65BD42], AccurateRip returned [CF8A88EE] (AR v2)
Track 15 cannot be verified as accurate (confidence 3) [AB09768C], AccurateRip returned [B62FB049] (AR v2)
No tracks could be verified as accurate
You may have a different pressing from the one(s) in the database
End of status report
---- CUETools DB Plugin V2.1.6
[CTDB TOCID: kAf4BC76hjZf2UEPcJ7a_3svdVA-] found
Submit result: kAf4BC76hjZf2UEPcJ7a_3svdVA- has been confirmed
Track | CTDB Status
1 | (1/1) Accurately ripped
2 | (1/1) Accurately ripped
3 | (1/1) Accurately ripped
4 | (1/1) Accurately ripped
5 | (1/1) Accurately ripped
6 | (1/1) Accurately ripped
7 | (1/1) Accurately ripped
8 | (1/1) Accurately ripped
9 | (1/1) Accurately ripped
10 | (1/1) Accurately ripped
11 | (1/1) Accurately ripped
12 | (1/1) Accurately ripped
13 | (1/1) Accurately ripped
14 | (1/1) Accurately ripped
15 | (1/1) Accurately ripped
==== Log checksum 1781E28AD916C171855CEBC96D6C913F6F1BBA422820F05F3EABA700F2C8104A ====

CD3

Exact Audio Copy V1.0 beta 6 from 9. April 2015
EAC extraction logfile from 29. September 2015, 1:23
Sutherland, Milnes, Morris, Conrad - Welsh National Opera, Bonynge / Thomas - Hamlet, Bonynge CD3
Used drive : TS8XDVDSTRANSCEND Adapter: 1 ID: 1
Read mode : Secure
Utilize accurate stream : Yes
Defeat audio cache : Yes
Make use of C2 pointers : No
Read offset correction : 6
Overread into Lead-In and Lead-Out : No
Fill up missing offset samples with silence : Yes
Delete leading and trailing silent blocks : No
Null samples used in CRC calculations : Yes
Used interface : Native Win32 interface for Win NT & 2000
Used output format : Monkey's Audio Lossless Encoder
Selected bitrate : High Lossless Compression
Quality : High
Add ID3 tag : Yes
Command line compressor : C:\Program Files (x86)\Exact Audio Copy\MAC\MAC.exe
TOC of the extracted CD
Track | Start | Length | Start sector | End sector
---------------------------------------------------------
1 | 0:00.32 | 1:51.43 | 32 | 8399
2 | 1:52.00 | 2:58.50 | 8400 | 21799
3 | 4:50.50 | 2:59.22 | 21800 | 35246
4 | 7:49.72 | 1:45.73 | 35247 | 43194
5 | 9:35.70 | 6:50.45 | 43195 | 73989
6 | 16:26.40 | 12:38.72 | 73990 | 130911
7 | 29:05.37 | 4:06.55 | 130912 | 149416
8 | 33:12.17 | 5:52.65 | 149417 | 175881
9 | 39:05.07 | 3:20.53 | 175882 | 190934
10 | 42:25.60 | 2:18.70 | 190935 | 201354
11 | 44:44.55 | 6:27.70 | 201355 | 230449
Range status and errors
Selected range
Filename D:\EAC\Thomas - Hamlet, Bonynge CD3.wav
Peak level 92.0 %
Extraction speed 1.9 X
Range quality 99.9 %
Test CRC B7C7EDB3
Copy CRC B7C7EDB3
Copy OK
No errors occurred
AccurateRip summary
Track 1 cannot be verified as accurate (confidence 3) [46737527], AccurateRip returned [B5944331] (AR v2)
Track 2 cannot be verified as accurate (confidence 3) [90A609A8], AccurateRip returned [F1BA9B90] (AR v2)
Track 3 cannot be verified as accurate (confidence 3) [56A18C27], AccurateRip returned [DD583813] (AR v2)
Track 4 cannot be verified as accurate (confidence 3) [C08AD67F], AccurateRip returned [BAE10773] (AR v2)
Track 5 cannot be verified as accurate (confidence 3) [4B942338], AccurateRip returned [70624D32] (AR v2)
Track 6 cannot be verified as accurate (confidence 3) [C11D0FE9], AccurateRip returned [BAD3B19C] (AR v2)
Track 7 cannot be verified as accurate (confidence 3) [3DC49D42], AccurateRip returned [FC8045AE] (AR v2)
Track 8 cannot be verified as accurate (confidence 3) [B3E3828E], AccurateRip returned [C352492B] (AR v2)
Track 9 cannot be verified as accurate (confidence 3) [0E3A0CFD], AccurateRip returned [AF797521] (AR v2)
Track 10 cannot be verified as accurate (confidence 3) [EC804A91], AccurateRip returned [A8915B38] (AR v2)
Track 11 cannot be verified as accurate (confidence 3) [64C67649], AccurateRip returned [3C160E3E] (AR v2)
No tracks could be verified as accurate
You may have a different pressing from the one(s) in the database
End of status report
---- CUETools DB Plugin V2.1.6
[CTDB TOCID: QYOhq9YIJ7nhnoLa8lZHM.nwMi4-] found
Submit result: unrecognized or virtual drive
Track | CTDB Status
1 | (1/1) Accurately ripped
2 | (1/1) Accurately ripped
3 | (1/1) Accurately ripped
4 | (1/1) Accurately ripped
5 | (1/1) Accurately ripped
6 | (1/1) Accurately ripped
7 | (1/1) Accurately ripped
8 | (1/1) Accurately ripped
9 | (1/1) Accurately ripped
10 | (1/1) Accurately ripped
11 | (1/1) Accurately ripped
==== Log checksum D64B23DA214C804D9DC1272C3D64B8B1F299679BA46A80EDCC90207A8840CF42 ====

Содержание индексной карты (.CUE)

CD1

REM GENRE Opera
REM DATE 1983
REM DISCID 450A7D07
REM COMMENT "ExactAudioCopy v1.0b6"
PERFORMER "Sutherland, Milnes, Morris, Conrad - Welsh National Opera, Bonynge"
TITLE "Thomas - Hamlet, Bonynge CD1"
FILE "Thomas - Hamlet, Bonynge CD1.ape" WAVE
TRACK 01 AUDIO
TITLE "Prélude"
PERFORMER "Sutherland, Milnes, Morris, Conrad - Welsh National Opera, Bonynge"
INDEX 00 00:00:00
INDEX 01 00:00:32
TRACK 02 AUDIO
TITLE "Act I, Tableau I- Que nos chants monent jusqu'aux cieux! (Courtisans)"
PERFORMER "Sutherland, Milnes, Morris, Conrad - Welsh National Opera, Bonynge"
INDEX 00 03:18:70
INDEX 01 03:18:72
TRACK 03 AUDIO
TITLE "Act I, Tableau I- Vains regrets! tendresse éphémère! (Hamlet)"
PERFORMER "Sutherland, Milnes, Morris, Conrad - Welsh National Opera, Bonynge"
INDEX 00 10:20:60
INDEX 01 10:20:62
TRACK 04 AUDIO
TITLE "Act I, Tableau I- Salut au prince Hamlet! (Laërte)"
PERFORMER "Sutherland, Milnes, Morris, Conrad - Welsh National Opera, Bonynge"
INDEX 00 18:40:41
INDEX 01 18:40:42
TRACK 05 AUDIO
TITLE "Act I, Tableau II- Prélude"
PERFORMER "Sutherland, Milnes, Morris, Conrad - Welsh National Opera, Bonynge"
INDEX 00 26:34:05
INDEX 01 26:34:07
TRACK 06 AUDIO
TITLE "Act I, Tableau II- Viendra-t-il- verrons-nous le spectre reparaître- (Horatio)"
PERFORMER "Sutherland, Milnes, Morris, Conrad - Welsh National Opera, Bonynge"
INDEX 00 31:03:15
INDEX 01 31:03:17
TRACK 07 AUDIO
TITLE "Act I, Tableau II- Spectre infernal! Image vénérée! (Hamlet)"
PERFORMER "Sutherland, Milnes, Morris, Conrad - Welsh National Opera, Bonynge"
INDEX 00 35:21:28
INDEX 01 35:21:30

CD2

REM GENRE Opera
REM DATE 1983
REM DISCID DE119A0F
REM COMMENT "ExactAudioCopy v1.0b6"
PERFORMER "Sutherland, Milnes, Morris, Conrad - Welsh National Opera, Bonynge"
TITLE "Thomas - Hamlet, Bonynge CD2"
FILE "Thomas - Hamlet, Bonynge CD2.ape" WAVE
TRACK 01 AUDIO
TITLE "Act II - Entracte"
PERFORMER "Sutherland, Milnes, Morris, Conrad - Welsh National Opera, Bonynge"
INDEX 00 00:00:00
INDEX 01 00:00:32
TRACK 02 AUDIO
TITLE "Act II - Sa main depuis hier"
PERFORMER "Sutherland, Milnes, Morris, Conrad - Welsh National Opera, Bonynge"
INDEX 01 02:04:00
TRACK 03 AUDIO
TITLE "Act II - Je croyais pres de vous trouver mon fils"
PERFORMER "Sutherland, Milnes, Morris, Conrad - Welsh National Opera, Bonynge"
INDEX 01 10:00:02
TRACK 04 AUDIO
TITLE "Act II - L'ame de votre fils est a jamais troublee"
PERFORMER "Sutherland, Milnes, Morris, Conrad - Welsh National Opera, Bonynge"
INDEX 01 14:51:15
TRACK 05 AUDIO
TITLE "Act II - Voici les histrions mandes par vous"
PERFORMER "Sutherland, Milnes, Morris, Conrad - Welsh National Opera, Bonynge"
INDEX 01 20:45:55
TRACK 06 AUDIO
TITLE "Act II - O vin, dissipe la tristesse"
PERFORMER "Sutherland, Milnes, Morris, Conrad - Welsh National Opera, Bonynge"
INDEX 01 24:21:45
TRACK 07 AUDIO
TITLE "Act II - Marche danoise... Belle, permettez-nous"
PERFORMER "Sutherland, Milnes, Morris, Conrad - Welsh National Opera, Bonynge"
INDEX 01 27:55:05
TRACK 08 AUDIO
TITLE "Act II - C'est le vieux Roi Gonzague"
PERFORMER "Sutherland, Milnes, Morris, Conrad - Welsh National Opera, Bonynge"
INDEX 01 32:20:40
TRACK 09 AUDIO
TITLE "Act II - O mortelle offense"
PERFORMER "Sutherland, Milnes, Morris, Conrad - Welsh National Opera, Bonynge"
INDEX 01 37:00:20
TRACK 10 AUDIO
TITLE "Act III - Entracte"
PERFORMER "Sutherland, Milnes, Morris, Conrad - Welsh National Opera, Bonynge"
INDEX 00 40:49:36
INDEX 01 40:56:45
TRACK 11 AUDIO
TITLE "Act III - Mais qui donc ose me suivre"
PERFORMER "Sutherland, Milnes, Morris, Conrad - Welsh National Opera, Bonynge"
INDEX 01 46:29:62
TRACK 12 AUDIO
TITLE "Act III - Je t'implore, o mon frere"
PERFORMER "Sutherland, Milnes, Morris, Conrad - Welsh National Opera, Bonynge"
INDEX 01 47:54:30
TRACK 13 AUDIO
TITLE "Act III - Le voila! Je veux lire enfin dans sa pensee"
PERFORMER "Sutherland, Milnes, Morris, Conrad - Welsh National Opera, Bonynge"
INDEX 01 52:35:52
TRACK 14 AUDIO
TITLE "Act III - Hamlet, ma douleur est immense"
PERFORMER "Sutherland, Milnes, Morris, Conrad - Welsh National Opera, Bonynge"
INDEX 01 61:30:00
TRACK 15 AUDIO
TITLE "Act III - Pardonne, helas! ta voix m'accable"
PERFORMER "Sutherland, Milnes, Morris, Conrad - Welsh National Opera, Bonynge"
INDEX 01 68:53:02

CD3

REM GENRE Opera
REM DATE 1983
REM DISCID AF0C000B
REM COMMENT "ExactAudioCopy v1.0b6"
PERFORMER "Sutherland, Milnes, Morris, Conrad - Welsh National Opera, Bonynge"
TITLE "Thomas - Hamlet, Bonynge CD3"
FILE "Thomas - Hamlet, Bonynge CD3.ape" WAVE
TRACK 01 AUDIO
TITLE "24. Act IV- Entr'acte"
PERFORMER "Sutherland, Milnes, Morris, Conrad - Welsh National Opera, Bonynge"
INDEX 00 00:00:00
INDEX 01 00:00:32
TRACK 02 AUDIO
TITLE "25. Act IV- Danse villageoise"
PERFORMER "Sutherland, Milnes, Morris, Conrad - Welsh National Opera, Bonynge"
INDEX 01 01:52:00
TRACK 03 AUDIO
TITLE "26. Act IV- Pas des chasseurs - Pantomime"
PERFORMER "Sutherland, Milnes, Morris, Conrad - Welsh National Opera, Bonynge"
INDEX 01 04:50:50
TRACK 04 AUDIO
TITLE "27. Act IV- Valse-mazurka"
PERFORMER "Sutherland, Milnes, Morris, Conrad - Welsh National Opera, Bonynge"
INDEX 00 07:49:71
INDEX 01 07:49:72
TRACK 05 AUDIO
TITLE "28. Act IV- Scène du bouquet - Finale"
PERFORMER "Sutherland, Milnes, Morris, Conrad - Welsh National Opera, Bonynge"
INDEX 00 09:35:69
INDEX 01 09:35:70
TRACK 06 AUDIO
TITLE "29. Act IV- A vos jeux, mes amis, permettez-moi (Ophélie)"
PERFORMER "Sutherland, Milnes, Morris, Conrad - Welsh National Opera, Bonynge"
INDEX 00 16:26:39
INDEX 01 16:26:40
TRACK 07 AUDIO
TITLE "30. Act IV- Le voilà! Je crois l'entendre (Ophélie)"
PERFORMER "Sutherland, Milnes, Morris, Conrad - Welsh National Opera, Bonynge"
INDEX 00 29:05:36
INDEX 01 29:05:37
TRACK 08 AUDIO
TITLE "31. Act V- Dame ou prince, homme ou femme (Premier fossoyeur)"
PERFORMER "Sutherland, Milnes, Morris, Conrad - Welsh National Opera, Bonynge"
INDEX 00 33:04:19
INDEX 01 33:12:17
TRACK 09 AUDIO
TITLE "32. Act V- La fatigue alourdit mes pas (Hamlet)"
PERFORMER "Sutherland, Milnes, Morris, Conrad - Welsh National Opera, Bonynge"
INDEX 01 39:05:07
TRACK 10 AUDIO
TITLE "33. Act V- Mais qui marche dans l'ombre (Hamlet)"
PERFORMER "Sutherland, Milnes, Morris, Conrad - Welsh National Opera, Bonynge"
INDEX 00 42:25:59
INDEX 01 42:25:60
TRACK 11 AUDIO
TITLE "34. Act V- Ecoute! Quel est ce bruit de pas (Hamlet)"
PERFORMER "Sutherland, Milnes, Morris, Conrad - Welsh National Opera, Bonynge"
INDEX 00 44:44:54
INDEX 01 44:44:55
Доп. информация:
Доп. информация:
With Mignon http://teatrix.ru/viewtopic.php?t=22378 (premiered at the Opéra Comique in 1866), Thomas achieved his first great acclaim outside, as well as within, France.
Thomas turned to Shakespeare again for his Hamlet (Paris Opera, 1868), with a libretto by the seasoned team of Jules Barbier and Michel Carré.
This opera has a strong, dramatic libretto, although it closes with a traditional (and, surprising for Hamlet) happy ending.
It enjoyed a long vogue, and like Mignon it continues to have a certain following; during 2010 it was heard at New York's Metropolitan Opera.
His last opera, Françoise de Rimini (Paris Opéra, 1882) based on a passage from Dante's Inferno, failed to stay in the repertoire.



Показать сообщения:    

Текущее время: 04-Дек 06:56

Часовой пояс: UTC + 3


Вы не можете начинать темы
Вы не можете отвечать на сообщения
Вы не можете редактировать свои сообщения
Вы не можете удалять свои сообщения
Вы не можете голосовать в опросах
Вы не можете прикреплять файлы к сообщениям
Вы не можете скачивать файлы