(Classical) Dvorak, Smetana, Suk - Piano Trios - Sitkovetsky Trio - 2014, FLAC (image+.cue) lossless


 

[Цитировать]

Dvořák, Smetana, Suk - Piano Trios - Sitkovetsky Trio
Жанр: Classical
Страна-производитель диска: Sweden
Год издания диска: 2014
Издатель (лейбл): BIS
Номер по каталогу: BIS-SACD-2059
Дата записи: 2013
Аудиокодек: FLAC
Тип рипа: image+.cue
Битрейт аудио: lossless
Продолжительность: 73:11
Источник: собственный рип
Наличие сканов в содержимом раздачи: да
Треклист:
Antonín Dvořák (1841-1904)
[1]-[4] Piano Trio No. 3 in F minor, Op. 65 (1883)
Bedřich Smetana (1824–84)
[5]-[7] Piano Trio in G minor, Op. 15 (1855/58)
Josef Suk (1874–1935)
[8] Elegy for piano trio, Op. 23 (1902)
Исполнители:
Sitkovetsky Trio
Alexander Sitkovetsky violin
Leonard Elschenbroich cello
Wu Qian piano

Лог создания рипа

Exact Audio Copy V1.0 beta 3 from 29. August 2011
EAC extraction logfile from 9. March 2015, 2:17
Sitkovetsky Trio / Dvorak, Smetana, Suk - Piano Trios
Used drive : HL-DT-STDVDRAM GU70N Adapter: 0 ID: 0
Read mode : Secure
Utilize accurate stream : Yes
Defeat audio cache : Yes
Make use of C2 pointers : No
Read offset correction : 48
Overread into Lead-In and Lead-Out : No
Fill up missing offset samples with silence : Yes
Delete leading and trailing silent blocks : No
Null samples used in CRC calculations : Yes
Used interface : Native Win32 interface for Win NT & 2000
Used output format : User Defined Encoder
Selected bitrate : 128 kBit/s
Quality : High
Add ID3 tag : No
Command line compressor : C:\Program Files (x86)\Exact Audio Copy\Flac\flac.exe
Additional command line options : -V -8 -T "Date=%year%" -T "Genre=%genre%" %source%
TOC of the extracted CD
Track | Start | Length | Start sector | End sector
---------------------------------------------------------
1 | 0:00.00 | 13:24.11 | 0 | 60310
2 | 13:24.11 | 6:32.43 | 60311 | 89753
3 | 19:56.54 | 10:35.58 | 89754 | 137436
4 | 30:32.37 | 9:13.37 | 137437 | 178948
5 | 39:45.74 | 10:42.54 | 178949 | 227152
6 | 50:28.53 | 7:33.18 | 227153 | 261145
7 | 58:01.71 | 8:23.22 | 261146 | 298892
8 | 66:25.18 | 6:45.70 | 298893 | 329337
Range status and errors
Selected range
Filename C:\temp\BIS-SACD-2059 - Dvorak, Smetana, Suk - Piano Trios\Dvorak, Smetana, Suk - Piano Trios.wav
Peak level 97.4 %
Extraction speed 5.4 X
Range quality 100.0 %
Test CRC F5113953
Copy CRC F5113953
Copy OK
No errors occurred
AccurateRip summary
Track 1 accurately ripped (confidence 2) [481B55E4] (AR v2)
Track 2 accurately ripped (confidence 2) [63FCCA51] (AR v2)
Track 3 accurately ripped (confidence 2) [24EBAB0A] (AR v2)
Track 4 accurately ripped (confidence 2) [1C3ACAF3] (AR v2)
Track 5 accurately ripped (confidence 2) [8A03A952] (AR v2)
Track 6 accurately ripped (confidence 2) [9C5DE91B] (AR v2)
Track 7 accurately ripped (confidence 2) [A1985726] (AR v2)
Track 8 accurately ripped (confidence 2) [CC84A18B] (AR v2)
All tracks accurately ripped
End of status report
==== Log checksum FD5CA3BDF3E2ED1320286C4A160965A7B3A34FEEF018EF84070F0DD3A5219231 ====



Показать сообщения:    

Текущее время: 07-Дек 00:55

Часовой пояс: UTC + 3


Вы не можете начинать темы
Вы не можете отвечать на сообщения
Вы не можете редактировать свои сообщения
Вы не можете удалять свои сообщения
Вы не можете голосовать в опросах
Вы не можете прикреплять файлы к сообщениям
Вы не можете скачивать файлы