(Opera) Pietro Mascagni - Nerone / Пьетро Масканьи - Нерон (Kees Bakels; Georgi Tcholakov, Lynne Strow-Piccolo, Rosanna Didonè, Sigmund Cowan, Harrie Peeters), 1986 - live from Utrecht / FLAC (tracks+.cue), lossless


 

[Цитировать]

Pietro Mascagni - Nerone / Пьетро Масканьи - Нерон (Kees Bakels; Georgi Tcholakov, Lynne Strow-Piccolo, Rosanna Didonè, Sigmund Cowan, Harrie Peeters)
Жанр: Opera
Страна-производитель диска: Италия
Год издания диска: 1988
Издатель (лейбл): Bongiovanni
Дата записи: 1986
Аудиокодек: FLAC
Тип рипа: tracks+.cue
Битрейт аудио: lossless
Продолжительность: 110:04
Источник: релизер (Guillermo)
Исполнители:
Nerone - Georgi Tcholakov,
Atte - Lynne Strow-Piccolo,
Egloge - Rosanna Didonè,
Menecrate/Epafrodito - Sigmund Cowan,
Rufo/Mucrone - Harrie Peeters,
Vinicio/Petronio - Math Dirks,
Nevio/Faonte - Dino Di Domenico,
Babilio/Eulogio - Davin Shapero,
Icelo/Pastore - Zoltán Kovacs.
Conductor - Kees Bakels,
Hilversum Radio Symphony Orchestra,
Netherlands Radio Chorus.
Recording of a concert performance at Music Center Vredenburg, Utrecht, November 16, 1986.

Лог создания рипаЛог создания рипа CD 1

Exact Audio Copy V1.0 beta 3 from 29. August 2011
EAC extraction logfile from 4. September 2015, 13:30
Kees Bakels - Radio Symph. Orch. di Hilversum; Tcholokov, Strow Piccolo, Didone, Cowan, / Pietro Mascagni - Nerone CD 1
Used drive : HL-DT-STDVDRAM GH24NSC0 Adapter: 3 ID: 0
Read mode : Secure
Utilize accurate stream : Yes
Defeat audio cache : Yes
Make use of C2 pointers : No
Read offset correction : 6
Overread into Lead-In and Lead-Out : No
Fill up missing offset samples with silence : Yes
Delete leading and trailing silent blocks : No
Null samples used in CRC calculations : Yes
Used interface : Native Win32 interface for Win NT & 2000
Gap handling : Appended to previous track
Used output format : User Defined Encoder
Selected bitrate : 768 kBit/s
Quality : High
Add ID3 tag : No
Command line compressor : C:\Program Files (x86)\Exact Audio Copy\FLAC\FLAC.EXE
Additional command line options : -8 -V -T "ARTIST=%artist%" -T "TITLE=%title%" -T "ALBUM=%albumtitle%" -T "DATE=%year%" -T "TRACKNUMBER=%tracknr%" -T "GENRE=%genre%" -T "PERFORMER=%albuminterpret%" -T "COMPOSER=%composer%" %haslyrics%--tag-from-file=LYRICS="%lyricsfile%"%haslyrics% -T "ALBUMARTIST=%albumartist%" -T "DISCNUMBER=%cdnumber%" -T "TOTALDISCS=%totalcds%" -T "TOTALTRACKS=%numtracks%" -T "COMMENT=%comment%" %source% -o %dest%
TOC of the extracted CD
Track | Start | Length | Start sector | End sector
---------------------------------------------------------
1 | 0:00.33 | 1:53.50 | 33 | 8557
2 | 1:54.08 | 6:52.00 | 8558 | 39457
3 | 8:46.08 | 0:24.25 | 39458 | 41282
4 | 9:10.33 | 5:54.00 | 41283 | 67832
5 | 15:04.33 | 2:04.00 | 67833 | 77132
6 | 17:08.33 | 7:38.25 | 77133 | 111507
7 | 24:46.58 | 2:57.50 | 111508 | 124832
8 | 27:44.33 | 3:38.00 | 124833 | 141182
9 | 31:22.33 | 4:35.50 | 141183 | 161857
10 | 35:58.08 | 10:00.00 | 161858 | 206857
11 | 45:58.08 | 2:40.42 | 206858 | 218899
12 | 48:38.50 | 6:21.70 | 218900 | 247544
13 | 55:00.45 | 1:28.63 | 247545 | 254207
Track 1
Filename f:\Users\Guillermo\Desktop\EAC convertidos\01 Act 1 Eccola la, l'orribile cometa.wav
Pre-gap length 0:00:02.44
Peak level 48.7 %
Extraction speed 1.2 X
Track quality 100.0 %
Test CRC 23F7A0F7
Copy CRC 23F7A0F7
Copy OK
Track 2
Filename f:\Users\Guillermo\Desktop\EAC convertidos\02 Taverniere, da bere.wav
Peak level 83.0 %
Extraction speed 1.7 X
Track quality 100.0 %
Test CRC EFA20399
Copy CRC EFA20399
Copy OK
Track 3
Filename f:\Users\Guillermo\Desktop\EAC convertidos\03 Al soccorso! M'inseguono.wav
Peak level 62.2 %
Extraction speed 0.6 X
Track quality 100.0 %
Test CRC B38A25A7
Copy CRC B38A25A7
Copy OK
Track 4
Filename f:\Users\Guillermo\Desktop\EAC convertidos\04 Col suo volo, la colomba.wav
Peak level 78.4 %
Extraction speed 2.0 X
Track quality 100.0 %
Test CRC 2A21F0E3
Copy CRC 2A21F0E3
Copy OK
Track 5
Filename f:\Users\Guillermo\Desktop\EAC convertidos\05 In quel tuo pingue corpo.wav
Peak level 65.9 %
Extraction speed 1.7 X
Track quality 100.0 %
Test CRC 728B9618
Copy CRC 728B9618
Copy OK
Track 6
Filename f:\Users\Guillermo\Desktop\EAC convertidos\06 Da questo nappo.wav
Peak level 80.7 %
Extraction speed 2.3 X
Track quality 100.0 %
Test CRC 30F4F960
Copy CRC 30F4F960
Copy OK
Track 7
Filename f:\Users\Guillermo\Desktop\EAC convertidos\07 Feci venir Vinicio.wav
Peak level 79.7 %
Extraction speed 2.1 X
Track quality 100.0 %
Test CRC A6E483FF
Copy CRC A6E483FF
Copy OK
Track 8
Filename f:\Users\Guillermo\Desktop\EAC convertidos\08 Act 2 Possa la morte.wav
Pre-gap length 0:00:07.00
Peak level 78.1 %
Extraction speed 2.3 X
Track quality 100.0 %
Test CRC 1E6400ED
Copy CRC 1E6400ED
Copy OK
Track 9
Filename f:\Users\Guillermo\Desktop\EAC convertidos\09 Ti sien propizi i Numi.wav
Peak level 69.2 %
Extraction speed 2.5 X
Track quality 100.0 %
Test CRC 4B1B7587
Copy CRC 4B1B7587
Copy OK
Track 10
Filename f:\Users\Guillermo\Desktop\EAC convertidos\10 Entra, fanciulla.wav
Peak level 78.8 %
Extraction speed 3.0 X
Track quality 100.0 %
Test CRC A640EF62
Copy CRC A640EF62
Copy OK
Track 11
Filename f:\Users\Guillermo\Desktop\EAC convertidos\11 Son le greche fanciulle.wav
Peak level 43.6 %
Extraction speed 2.5 X
Track quality 100.0 %
Test CRC D5580148
Copy CRC D5580148
Copy OK
Track 12
Filename f:\Users\Guillermo\Desktop\EAC convertidos\12 Una donna, Chi sei.wav
Peak level 70.1 %
Extraction speed 3.1 X
Track quality 100.0 %
Test CRC 3D5CC759
Copy CRC 3D5CC759
Copy OK
Track 13
Filename f:\Users\Guillermo\Desktop\EAC convertidos\13 Chi mai grida cosi.wav
Peak level 58.4 %
Extraction speed 2.2 X
Track quality 100.0 %
Test CRC 737ABC20
Copy CRC 737ABC20
Copy OK
No errors occurred
End of status report
==== Log checksum 9BF3251599C066B44CEBD6FB721F98A59319006EF75228F3151103ACD7050894 ====

Лог создания рипа CD 2

Exact Audio Copy V1.0 beta 3 from 29. August 2011
EAC extraction logfile from 4. September 2015, 14:52
Kees Bakels - Radio Symph. Orch. di Hilversum; Tcholokov, Strow Piccolo, Didone, Cowan / Pietro Mascagni - Nerone CD 2
Used drive : HL-DT-STDVDRAM GH24NSC0 Adapter: 3 ID: 0
Read mode : Secure
Utilize accurate stream : Yes
Defeat audio cache : Yes
Make use of C2 pointers : No
Read offset correction : 6
Overread into Lead-In and Lead-Out : No
Fill up missing offset samples with silence : Yes
Delete leading and trailing silent blocks : No
Null samples used in CRC calculations : Yes
Used interface : Native Win32 interface for Win NT & 2000
Gap handling : Appended to previous track
Used output format : User Defined Encoder
Selected bitrate : 768 kBit/s
Quality : High
Add ID3 tag : No
Command line compressor : C:\Program Files (x86)\Exact Audio Copy\FLAC\FLAC.EXE
Additional command line options : -8 -V -T "ARTIST=%artist%" -T "TITLE=%title%" -T "ALBUM=%albumtitle%" -T "DATE=%year%" -T "TRACKNUMBER=%tracknr%" -T "GENRE=%genre%" -T "PERFORMER=%albuminterpret%" -T "COMPOSER=%composer%" %haslyrics%--tag-from-file=LYRICS="%lyricsfile%"%haslyrics% -T "ALBUMARTIST=%albumartist%" -T "DISCNUMBER=%cdnumber%" -T "TOTALDISCS=%totalcds%" -T "TOTALTRACKS=%numtracks%" -T "COMMENT=%comment%" %source% -o %dest%
TOC of the extracted CD
Track | Start | Length | Start sector | End sector
---------------------------------------------------------
1 | 0:00.33 | 3:18.00 | 33 | 14882
2 | 3:18.33 | 2:22.00 | 14883 | 25532
3 | 5:40.33 | 15:30.00 | 25533 | 95282
4 | 21:10.33 | 0:58.00 | 95283 | 99632
5 | 22:08.33 | 0:30.50 | 99633 | 101932
6 | 22:39.08 | 2:44.25 | 101933 | 114257
7 | 25:23.33 | 5:28.00 | 114258 | 138857
8 | 30:51.33 | 2:30.00 | 138858 | 150107
9 | 33:21.33 | 5:27.37 | 150108 | 174669
10 | 38:48.70 | 2:21.38 | 174670 | 185282
11 | 41:10.33 | 8:04.37 | 185283 | 221619
12 | 49:14.70 | 3:20.13 | 221620 | 236632
13 | 52:35.08 | 1:08.25 | 236633 | 241757
Track 1
Filename f:\Users\Guillermo\Desktop\EAC convertidos\01 Divo Nerone.wav
Pre-gap length 0:00:02.44
Peak level 73.0 %
Extraction speed 1.4 X
Track quality 100.0 %
Test CRC CD2C2463
Copy CRC CD2C2463
Copy OK
Track 2
Filename f:\Users\Guillermo\Desktop\EAC convertidos\02 L'esercito di Spagna.wav
Peak level 64.0 %
Extraction speed 1.4 X
Track quality 100.0 %
Test CRC DF1A2029
Copy CRC DF1A2029
Copy OK
Track 3
Filename f:\Users\Guillermo\Desktop\EAC convertidos\03 Gloria a Nerone.wav
Pre-gap length 0:00:07.00
Peak level 94.5 %
Extraction speed 2.2 X
Track quality 100.0 %
Test CRC 3CB15BFA
Copy CRC 3CB15BFA
Copy OK
Track 4
Filename f:\Users\Guillermo\Desktop\EAC convertidos\04 Tu ridi Menecrate.wav
Peak level 74.1 %
Extraction speed 0.9 X
Track quality 99.6 %
Test CRC 8FCC7EC4
Copy CRC 8FCC7EC4
Copy OK
Track 5
Filename f:\Users\Guillermo\Desktop\EAC convertidos\05 Almeno voi non mi tradite.wav
Peak level 50.5 %
Extraction speed 0.9 X
Track quality 100.0 %
Test CRC CBB2040A
Copy CRC CBB2040A
Copy OK
Track 6
Filename f:\Users\Guillermo\Desktop\EAC convertidos\06 Eccomi solo.wav
Peak level 64.4 %
Extraction speed 2.0 X
Track quality 100.0 %
Test CRC 8FD6BB24
Copy CRC 8FD6BB24
Copy OK
Track 7
Filename f:\Users\Guillermo\Desktop\EAC convertidos\07 Io no.wav
Peak level 87.6 %
Extraction speed 2.4 X
Track quality 100.0 %
Test CRC 55B64794
Copy CRC 55B64794
Copy OK
Track 8
Filename f:\Users\Guillermo\Desktop\EAC convertidos\08 Parla.wav
Peak level 80.7 %
Extraction speed 2.2 X
Track quality 100.0 %
Test CRC CD964F30
Copy CRC CD964F30
Copy OK
Track 9
Filename f:\Users\Guillermo\Desktop\EAC convertidos\09 Interludio orchestrale.wav
Peak level 95.5 %
Extraction speed 2.7 X
Track quality 100.0 %
Test CRC 33374A26
Copy CRC 33374A26
Copy OK
Track 10
Filename f:\Users\Guillermo\Desktop\EAC convertidos\10 Faonte, la tua casa.wav
Peak level 65.1 %
Extraction speed 2.3 X
Track quality 100.0 %
Test CRC D64C0E5D
Copy CRC D64C0E5D
Copy OK
Track 11
Filename f:\Users\Guillermo\Desktop\EAC convertidos\11 Ho sonno.wav
Peak level 87.0 %
Extraction speed 3.0 X
Track quality 100.0 %
Test CRC EE04A2E8
Copy CRC EE04A2E8
Copy OK
Track 12
Filename f:\Users\Guillermo\Desktop\EAC convertidos\12 Amico, puoi darmi vita o morte.wav
Peak level 87.0 %
Extraction speed 2.8 X
Track quality 100.0 %
Test CRC 5FF5C507
Copy CRC 5FF5C507
Copy OK
Track 13
Filename f:\Users\Guillermo\Desktop\EAC convertidos\13 Legionari, correte.wav
Peak level 87.0 %
Extraction speed 1.9 X
Track quality 100.0 %
Test CRC 6D94A66B
Copy CRC 6D94A66B
Copy OK
No errors occurred
End of status report
==== Log checksum ACD1D0559331311CB55367AF5E6FAB2C9D48675B40E45956CB2E404BB26D22D2 ====

Содержание индексной карты (.CUE)Содержание индексной карты (.CUE) CD 1

REM GENRE Opera
REM DATE 1986
REM DISCID A20D3D0D
REM COMMENT "ExactAudioCopy v1.0b3"
FILE "01 Act 1 Eccola la, l'orribile cometa.wav" WAVE
TRACK 01 AUDIO
PREGAP 00:00:33
INDEX 01 00:00:00
FILE "02 Taverniere, da bere.wav" WAVE
TRACK 02 AUDIO
INDEX 01 00:00:00
FILE "03 Al soccorso! M'inseguono.wav" WAVE
TRACK 03 AUDIO
INDEX 01 00:00:00
FILE "04 Col suo volo, la colomba.wav" WAVE
TRACK 04 AUDIO
INDEX 01 00:00:00
FILE "05 In quel tuo pingue corpo.wav" WAVE
TRACK 05 AUDIO
INDEX 01 00:00:00
FILE "06 Da questo nappo.wav" WAVE
TRACK 06 AUDIO
INDEX 01 00:00:00
FILE "07 Feci venir Vinicio.wav" WAVE
TRACK 07 AUDIO
INDEX 01 00:00:00
TRACK 08 AUDIO
INDEX 00 02:50:50
FILE "08 Act 2 Possa la morte.wav" WAVE
INDEX 01 00:00:00
FILE "09 Ti sien propizi i Numi.wav" WAVE
TRACK 09 AUDIO
INDEX 01 00:00:00
FILE "10 Entra, fanciulla.wav" WAVE
TRACK 10 AUDIO
INDEX 01 00:00:00
FILE "11 Son le greche fanciulle.wav" WAVE
TRACK 11 AUDIO
INDEX 01 00:00:00
FILE "12 Una donna, Chi sei.wav" WAVE
TRACK 12 AUDIO
INDEX 01 00:00:00
FILE "13 Chi mai grida cosi.wav" WAVE
TRACK 13 AUDIO
INDEX 01 00:00:00

Содержание индексной карты (.CUE) CD 2

REM GENRE Opera
REM DATE 1986
REM DISCID 8B0C970D
REM COMMENT "ExactAudioCopy v1.0b3"
FILE "01 Divo Nerone.wav" WAVE
TRACK 01 AUDIO
PREGAP 00:00:33
INDEX 01 00:00:00
FILE "02 L'esercito di Spagna.wav" WAVE
TRACK 02 AUDIO
INDEX 01 00:00:00
TRACK 03 AUDIO
INDEX 00 02:15:00
FILE "03 Gloria a Nerone.wav" WAVE
INDEX 01 00:00:00
FILE "04 Tu ridi Menecrate.wav" WAVE
TRACK 04 AUDIO
INDEX 01 00:00:00
FILE "05 Almeno voi non mi tradite.wav" WAVE
TRACK 05 AUDIO
INDEX 01 00:00:00
FILE "06 Eccomi solo.wav" WAVE
TRACK 06 AUDIO
INDEX 01 00:00:00
FILE "07 Io no.wav" WAVE
TRACK 07 AUDIO
INDEX 01 00:00:00
FILE "08 Parla.wav" WAVE
TRACK 08 AUDIO
INDEX 01 00:00:00
FILE "09 Interludio orchestrale.wav" WAVE
TRACK 09 AUDIO
INDEX 01 00:00:00
FILE "10 Faonte, la tua casa.wav" WAVE
TRACK 10 AUDIO
INDEX 01 00:00:00
FILE "11 Ho sonno.wav" WAVE
TRACK 11 AUDIO
INDEX 01 00:00:00
FILE "12 Amico, puoi darmi vita o morte.wav" WAVE
TRACK 12 AUDIO
INDEX 01 00:00:00
FILE "13 Legionari, correte.wav" WAVE
TRACK 13 AUDIO
INDEX 01 00:00:00

Треклист

Disc 1:
Act I:
1. Scene 1. Eccola là, l'orribile cometa
2. Scene 2. Taverniere, da bere!
3. Scene 3. Al soccorso! M'inseguono...
4. Scene 4. Col suo volo, la colomba
5. Scene 5. In quel tuo pingue corpo
6. Scene 6. Da questo nappo
7. Scene 7. Feci venir Vinicio
Act II:
8. Scene 1. Possa la morte
9. Scene 2. Ti sien propizi i Numi
10. Scene 3. Entra, fanciulla
11. Scene 4. Son le greche fanciulle
12. Scene 5. Una donna? Chi sei?
13. Scene 6. Chi mai grida così
Disc 2:
1. Scene 7. Divo Nerone
2. Scene 8. L'esercito di Spagna
Act III, Part 1:
3. Scene 1. Gloria a Nerone
4. Scene 2. Tu ridi Menecrate
5. Scene 3. Almeno voi non mi tradite
6. Scene 4. Eccomi solo
7. Scene 5. Io no
8. Scene 6. Parla
9. Interludio orchestralr
Part 2:
10. Scene 1. Faonte, la tua casa
11. Part 2. Scene 2. Ho sonno
12. Part 2. Scene 3. Amico, puoi darmi vita o morte
13. Part 2. Scena ultima. Legionari, correte



Показать сообщения:    

Текущее время: 08-Дек 01:20

Часовой пояс: UTC + 3


Вы не можете начинать темы
Вы не можете отвечать на сообщения
Вы не можете редактировать свои сообщения
Вы не можете удалять свои сообщения
Вы не можете голосовать в опросах
Вы не можете прикреплять файлы к сообщениям
Вы не можете скачивать файлы