(Opera) Mascagni - Silvano (Comencini, Morini, Di Gregorio, Adriani - Società Corale Pisana / Orchestra Clara Schumann, Menicagli) - 2003, APE (image+.cue) lossless


 

[Цитировать]

Pietro Mascagni - Silvano
Жанр: Opera
Страна-производитель диска: Italy
Год издания диска: 2003
Издатель (лейбл): Kicco
Номер по каталогу: KC095.CD
Дата записи: 2003
Аудиокодек: APE
Тип рипа: image+.cue
Битрейт аудио: lossless
Продолжительность: 69'01
Источник: собственный рип
Наличие сканов в содержимом раздачи: да
Треклист:
1. Akt I Intro & coro
2. Akt I Torno adorata mia
3. Akt I Evviva Renzo
4. Akt I Mi sia propizio il mare....Sulle balze erbose
5. Akt I Sulle balze erbose
6. Akt I Misera me
7. Akt I Quando saranno andati tutti a pesca
8. Akt II Coro dei marinai
9. Akt II Andante sostenuto
10. Akt II Come le barche son lontane
11. Akt II Sollecite venite
12. Akt II Lo miro, miro
13. Akt II S'è spento il sol
14. Akt II Ho dormito....Sollecito Silvano
15. Akt II Finale - Tu qui?
Исполнители:
Pietro Mascagni - Silvano
Dramma marinaresco in due atti, versi di Giovanni Targioni-Tozzetti
First performance, Milano Teatro alla Scala, March 25, 1895
Silvano: Maurizio Comencini, tenor
Renzo: Carlo Morini, baritone
Matilde: Paola Di Gregorio, soprano
Rosa: Miria Adriani, mezzo-soprano
Società Corale Pisana
Orchestra Clara Schumann
Conductor: Mario Menicagli
Live recorded in Collesalvetti
Studio: Parco di Villa Carmignani - August 2003

Лог создания рипа

Exact Audio Copy V1.0 beta 3 from 29. August 2011
EAC extraction logfile from 23. August 2014, 17:28
Mascagni / Silvano, Menicagli
Used drive : TS8XDVDSTRANSCEND Adapter: 1 ID: 1
Read mode : Secure
Utilize accurate stream : Yes
Defeat audio cache : Yes
Make use of C2 pointers : No
Read offset correction : 6
Overread into Lead-In and Lead-Out : No
Fill up missing offset samples with silence : Yes
Delete leading and trailing silent blocks : No
Null samples used in CRC calculations : Yes
Used interface : Native Win32 interface for Win NT & 2000
Used output format : Monkey's Audio Lossless Encoder
Selected bitrate : High Lossless Compression
Quality : High
Add ID3 tag : No
Command line compressor : C:\Program Files (x86)\Exact Audio Copy\MAC\MAC.exe
TOC of the extracted CD
Track | Start | Length | Start sector | End sector
---------------------------------------------------------
1 | 0:00.00 | 6:26.20 | 0 | 28969
2 | 6:26.20 | 6:22.70 | 28970 | 57689
3 | 12:49.15 | 3:03.07 | 57690 | 71421
4 | 15:52.22 | 10:11.70 | 71422 | 117316
5 | 26:04.17 | 3:18.23 | 117317 | 132189
6 | 29:22.40 | 5:19.05 | 132190 | 156119
7 | 34:41.45 | 2:24.61 | 156120 | 166980
8 | 37:06.31 | 5:20.19 | 166981 | 190999
9 | 42:26.50 | 2:21.22 | 191000 | 201596
10 | 44:47.72 | 5:20.52 | 201597 | 225648
11 | 50:08.49 | 2:23.01 | 225649 | 236374
12 | 52:31.50 | 1:36.12 | 236375 | 243586
13 | 54:07.62 | 6:52.06 | 243587 | 274492
14 | 60:59.68 | 5:24.23 | 274493 | 298815
15 | 66:24.16 | 2:50.63 | 298816 | 311628
Range status and errors
Selected range
Filename D:\EAC\Mascagni - Silvano, Menicagli.wav
Peak level 80.2 %
Extraction speed 3.1 X
Range quality 100.0 %
Test CRC 25A7F2CE
Copy CRC 25A7F2CE
Copy OK
No errors occurred
AccurateRip summary
Track 1 accurately ripped (confidence 2) [58DFFCAC] (AR v1)
Track 2 accurately ripped (confidence 2) [4380A542] (AR v1)
Track 3 accurately ripped (confidence 2) [6737E8A6] (AR v1)
Track 4 accurately ripped (confidence 2) [D51B48CC] (AR v1)
Track 5 accurately ripped (confidence 2) [6EDCC42C] (AR v1)
Track 6 accurately ripped (confidence 2) [76D001BF] (AR v1)
Track 7 accurately ripped (confidence 2) [7DD534FC] (AR v1)
Track 8 accurately ripped (confidence 2) [B47E62DB] (AR v1)
Track 9 accurately ripped (confidence 2) [2C6CDA57] (AR v1)
Track 10 accurately ripped (confidence 2) [A61FDC27] (AR v1)
Track 11 accurately ripped (confidence 2) [1B1BD18E] (AR v1)
Track 12 accurately ripped (confidence 2) [BD79968C] (AR v1)
Track 13 accurately ripped (confidence 2) [7DA3A7D3] (AR v1)
Track 14 accurately ripped (confidence 2) [FA6D1D78] (AR v1)
Track 15 accurately ripped (confidence 2) [F8786269] (AR v1)
All tracks accurately ripped
End of status report
---- CUETools DB Plugin V2.1.3
[CTDB TOCID: H7srFmpqGVHL5566z0ZWGTk1kxo-] disk not present in database, Submit result: unrecognized or virtual drive
==== Log checksum ACF2D8910CE4673C870E4BBB1293A4F4E3EFAF7C73DC9E0034467A8301B9ADE4 ====

Содержание индексной карты (.CUE)

REM GENRE Opera
REM DATE 2003
REM DISCID ED103B0F
REM COMMENT "ExactAudioCopy v1.0b3"
PERFORMER "Mascagni "
TITLE "Silvano, Menicagli "
FILE "Mascagni - Silvano, Menicagli.ape" WAVE
TRACK 01 AUDIO
TITLE "Akt I Intro & coro"
PERFORMER "Mascagni "
ISRC IT00X0302438
INDEX 01 00:00:00
TRACK 02 AUDIO
TITLE "Akt I Torno adorata mia"
PERFORMER "Mascagni "
ISRC IT00X0302439
INDEX 01 06:26:20
TRACK 03 AUDIO
TITLE "Akt I Evviva Renzo"
PERFORMER "Mascagni "
ISRC IT00X0302440
INDEX 01 12:49:15
TRACK 04 AUDIO
TITLE "Akt I Mi sia propizio il mare....Sulle balze erbose"
PERFORMER "Mascagni "
ISRC IT00X0302440
INDEX 01 15:52:22
TRACK 05 AUDIO
TITLE "Akt I Sulle balze erbose"
PERFORMER "Mascagni "
ISRC IT00X0302442
INDEX 01 26:04:17
TRACK 06 AUDIO
TITLE "Akt I Misera me"
PERFORMER "Mascagni "
ISRC IT00X0302443
INDEX 01 29:22:40
TRACK 07 AUDIO
TITLE "Akt I Quando saranno andati tutti a pesca"
PERFORMER "Mascagni "
ISRC IT00X0302444
INDEX 01 34:41:45
TRACK 08 AUDIO
TITLE "Akt II Coro dei marinai"
PERFORMER "Mascagni "
ISRC IT00X0302445
INDEX 01 37:06:31
TRACK 09 AUDIO
TITLE "Akt II Andante sostenuto"
PERFORMER "Mascagni "
ISRC IT00X0302446
INDEX 01 42:26:50
TRACK 10 AUDIO
TITLE "Akt II Come le barche son lontane"
PERFORMER "Mascagni "
ISRC IT00X0302447
INDEX 01 44:47:72
TRACK 11 AUDIO
TITLE "Akt II Sollecite venite"
PERFORMER "Mascagni "
ISRC IT00X0302448
INDEX 01 50:08:49
TRACK 12 AUDIO
TITLE "Akt II Lo miro, miro"
PERFORMER "Mascagni "
ISRC IT00X0302449
INDEX 01 52:31:50
TRACK 13 AUDIO
TITLE "Akt II S'è spento il sol"
PERFORMER "Mascagni "
ISRC IT00X0302450
INDEX 01 54:07:62
TRACK 14 AUDIO
TITLE "Akt II Ho dormito....Sollecito Silvano"
PERFORMER "Mascagni "
ISRC IT00X0302451
INDEX 01 60:59:68
TRACK 15 AUDIO
TITLE "Akt II Finale - Tu qui?"
PERFORMER "Mascagni "
ISRC IT00X0302452
INDEX 01 66:24:16
Доп. информация:
Mascagni wrote fifteen operas, an operetta, several orchestral and vocal works, as well as songs and piano music.
He created a variety of styles in his operas: a Sicilian passion and warmth of Cavalleria, the exotic flavor of Iris, the idylls of L'amico Fritz and Lodoletta, the Gallic chiaroscuro of Isabeau, the steely, Veristic power of Il piccolo Marat, the over-ripe post-romanticism of the lush Parisina, which demonstrate a versatility.
Silvano is a dramma marinaresco (literally a "seafaring drama") or opera in two acts by Pietro Mascagni, 1895, from a libretto by Giovanni Targioni-Tozzetti, based on a novel by Alphonse Karr.
It received its first performance on 25 March 1895 at La Scala, Milan.
Although rarely performed today, the music (if not the drama) is of some technical accomplishment, and when revived Silvano has been favourably received.
The barcarolle from Silvano features prominently in a montage during the Martin Scorsese film Raging Bull.



Показать сообщения:    

Текущее время: 07-Дек 15:32

Часовой пояс: UTC + 3


Вы не можете начинать темы
Вы не можете отвечать на сообщения
Вы не можете редактировать свои сообщения
Вы не можете удалять свои сообщения
Вы не можете голосовать в опросах
Вы не можете прикреплять файлы к сообщениям
Вы не можете скачивать файлы