[TR24][SM][OF] Frederic Chopin - Etudes opus 10 et opus 25 - Samson Francois - 1966 (Classical)


Статистика раздачи [Обновить пиров]
Размер:  708 MB   |    Зарегистрирован:  8 месяцев 13 дней   |    Скачан:  0 раз

Полного источника не было: Никогда

 
   
 
 
 

[Цитировать]

·
·
·

Frédéric Chopin (1810-1849)Жанр: Keyboard
Носитель: Official Digital Download
Год издания диска: Ⓟ 1966, 2011 EMI Music France
Год переиздания диска: © 2012 EMI Records Ltd.
Номер по каталогу: v/n
Продолжительность: 01:06:53
Наличие сканов в содержимом раздачи: cover art
Контейнер: FLAC (*.flac)
Разрядность: 24/96
Количество каналов: 2.0
Формат: tracks
Источник: HDtracks
Pелизер: WEB (thanks to the original customer)
Samson François piano

Треклист

12 Études Op. 10
01 No. 1 en ut majeur 02:20
02 No. 2 en la mineur 01:27
03 No. 3 en mi majeur 03:58
04 No. 4 en ut diese mineur 02:07
05 No. 5 en sol bemol majeur 01:48
06 No. 6 en mi bemol mineur 03:01
07 No. 7 en ut majeur 01:35
08 No. 8 en fa majeur 02:25
09 No. 9 en fa mineur 02:24
10 No.10 en la bemol majeur 02:05
11 No.11 en mi bemol majeur 02:42
12 No.12 en ut mineur 02:58
12 Études Op. 25
13 No. 1 en la bemol majeur 02:55
14 No. 2 en fa mineur 01:53
15 No. 3 en fa majeur 01:45
16 No. 4 en la mineur 01:51
17 No. 5 en mi mineur 03:12
18 No. 6 en sol diese mineur 02:13
19 No. 7 en ut diese mineur 05:18
20 No. 8 en re bemol majeur 01:07
21 No. 9 en sol bemol majeur 01:06
22 No.10 en si mineur 04:05
23 No.11 en la mineur 03:23
24 No.12 en ut mineur 03:01
3 Nouvelles Etudes Op. posth.
pour la "Methode des Methodes" de Moscheles
25 No. 1 en fa mineur 02:05
26 No. 2 en re bemol majeur 01:49
27 No. 3 en la bemol majeur 02:20

Dynamic Range Meter

foobar2000 1.2.6 / Dynamic Range Meter 1.1.1
log date: 2015-09-28 20:41:57
--------------------------------------------------------------------------------
Analyzed: Samson François / Chopin: Études, Op.10 & 25
--------------------------------------------------------------------------------
DR Peak RMS Duration Track
--------------------------------------------------------------------------------
DR11 -3.09 dB -15.55 dB 2:21 01-12 Études Op. 10: No. 1 en ut majeur
DR11 -7.73 dB -21.74 dB 1:27 02-12 Études Op. 10: No. 2 en la mineur
DR11 -1.81 dB -19.05 dB 3:59 03-12 Études Op. 10: No. 3 en mi majeur
DR12 -0.86 dB -15.73 dB 2:08 04-12 Études Op. 10: No. 4 en ut diese mineur
DR12 -0.89 dB -18.14 dB 1:49 05-12 Études Op. 10: No. 5 en sol bemol majeur
DR12 -3.52 dB -22.63 dB 3:01 06-12 Études Op. 10: No. 6 en mi bemol mineur
DR13 -0.49 dB -18.11 dB 1:36 07-12 Études Op. 10: No. 7 en ut majeur
DR12 -2.72 dB -18.33 dB 2:26 08-12 Études Op. 10: No. 8 en fa majeur
DR12 -0.13 dB -16.90 dB 2:25 09-12 Études Op. 10: No. 9 en fa mineur
DR12 -2.32 dB -20.04 dB 2:06 10-12 Études Op. 10: No. 10 en la bemol majeur
DR12 -6.50 dB -21.54 dB 2:43 11-12 Études Op. 10: No. 11 en mi bemol majeur
DR11 -1.55 dB -14.81 dB 2:59 12-12 Études Op. 10: No. 12 en ut mineur
DR11 -4.04 dB -20.85 dB 2:55 13-12 Études Op. 25: No. 1 en la bemol majeur
DR11 -10.11 dB -23.48 dB 1:53 14-12 Études Op. 25: No. 2 en fa mineur
DR12 -3.72 dB -20.52 dB 1:46 15-12 Études Op. 25: No. 3 en fa majeur
DR12 -0.84 dB -18.41 dB 1:51 16-12 Études Op. 25: No. 4 en la mineur
DR12 -1.02 dB -17.91 dB 3:12 17-12 Études Op. 25: No. 5 en mi mineur
DR11 -4.53 dB -19.66 dB 2:14 18-12 Études Op. 25: No. 6 en sol diese mineur
DR12 -2.64 dB -20.52 dB 5:18 19-12 Études Op. 25: No. 7 en ut diese mineur
DR12 -4.36 dB -19.29 dB 1:08 20-12 Études Op. 25: No. 8 en re bemol majeur
DR12 -4.03 dB -20.61 dB 1:07 21-12 Études Op. 25: No. 9 en sol bemol majeur
DR12 -0.69 dB -17.41 dB 4:05 22-12 Études Op. 25: No. 10 en si mineur
DR11 -0.63 dB -14.84 dB 3:23 23-12 Études Op. 25: No. 11 en la mineur
DR10 -2.06 dB -15.36 dB 3:01 24-12 Études Op. 25: No. 12 en ut mineur
DR12 -6.88 dB -23.22 dB 2:06 25-3 Nouvelles Etudes (pour la "Methode des Methodes" de Moscheles), Op. posth.: No. 1 en fa mineur
DR13 -5.71 dB -22.48 dB 1:49 26-3 Nouvelles Etudes (pour la "Methode des Methodes" de Moscheles), Op. posth.: No. 2 en re bemol majeur
DR12 -6.04 dB -22.82 dB 2:20 27-3 Nouvelles Etudes (pour la "Methode des Methodes" de Moscheles), Op. posth.: No. 3 en la bemol majeur
--------------------------------------------------------------------------------
Number of tracks: 27
Official DR value: DR12
Samplerate: 96000 Hz
Channels: 2
Bits per sample: 24
Bitrate: 2398 kbps
Codec: FLAC
================================================================================
[teatrix.ru].t22394.torrent 
Торрент: Зарегистрирован [ 2016-03-20 12:35 ] · F377B0113DC978D6693DFE9ECFC601EE4233CB08

Скачать .torrent

Скачать

17 KB

Статус: проверено
Скачан: 0 раз
Размер: 708 MB
terms.php



Быстрый ответ

Имя:

      
Для отправки сообщений необходимо включить JavaScript
Показать сообщения:    

Текущее время: 03-Дек 05:29

Часовой пояс: UTC + 3


Вы можете начинать темы
Вы можете отвечать на сообщения
Вы не можете редактировать свои сообщения
Вы не можете удалять свои сообщения
Вы не можете голосовать в опросах
Вы не можете прикреплять файлы к сообщениям
Вы можете скачивать файлы