[TR24][SM][OF] Maurice Ravel - Piano Concertos - Samson Francois, Andre Cluytens & Paris Conservatoire Orchestra (2011 - Remaster) - 1960 (Classical)


Статистика раздачи [Обновить пиров]
Размер:  711 MB   |    Зарегистрирован:  8 месяцев 19 дней   |    Скачан:  1 раз

Полного источника не было: 2 месяца 21 день

 
   
 
 
 

[Цитировать]

·
·
·

Joseph Maurice Ravel
(1875-1937)
Жанр: Concerto
Носитель: Official Digital Download
Год издания диска: Ⓟ 1960, 2011 EMI Music France
Год переиздания диска: © 2012 EMI Records Ltd.
Номер по каталогу: v/n
Продолжительность: 38:44
Наличие сканов в содержимом раздачи: cover art
Контейнер: FLAC (*.flac)
Разрядность: 24/96
Количество каналов: 2.0
Формат: tracks
Источник: HDtracks
Pелизер: WEB (thanks to the original customer)

Треклист & Исполнители

Concerto pour Piano et Orchestre en Sol Majeur
01 I. Allegramente 7:46
02 II. Adagio assai 8:39
03 III. Presto 4:01
04 Concerto pour La Main Gauche 18:18
·Samson François piano
Paris Conservatoire Orchestra
André Cluytens

Dynamic Range Meter

foobar2000 1.2.6 / Dynamic Range Meter 1.1.1
log date: 2015-09-29 21:52:09
--------------------------------------------------------------------------------
Analyzed: Samson François, Paris Conservatoire Orchestra, André Cluytens / Ravel: Piano Concertos
--------------------------------------------------------------------------------
DR Peak RMS Duration Track
--------------------------------------------------------------------------------
DR11 -2.19 dB -19.36 dB 7:47 01-Piano Concerto in G major: I. Allegramente
DR14 -4.12 dB -24.71 dB 8:40 02-Piano Concerto in G major: II. Adagio assai
DR12 -1.80 dB -18.09 dB 4:01 03-Piano Concerto in G major: III. Presto
DR13 -0.61 dB -18.92 dB 18:19 04-Piano Concerto in D major (for the left hand)
--------------------------------------------------------------------------------
Number of tracks: 4
Official DR value: DR13
Samplerate: 96000 Hz
Channels: 2
Bits per sample: 24
Bitrate: 2445 kbps
Codec: FLAC
================================================================================
[teatrix.ru].t22396.torrent 
Торрент: Зарегистрирован [ 2016-03-20 12:35 ] · 210E912E80B0CC2BBA75BC4540E8E79FC60751AF

Скачать .torrent

Скачать

15 KB

Статус: проверено
Скачан: 1 раз
Размер: 711 MB
terms.php



Быстрый ответ

Имя:

      
Для отправки сообщений необходимо включить JavaScript
Показать сообщения:    

Текущее время: 09-Дек 10:49

Часовой пояс: UTC + 3


Вы можете начинать темы
Вы можете отвечать на сообщения
Вы не можете редактировать свои сообщения
Вы не можете удалять свои сообщения
Вы не можете голосовать в опросах
Вы не можете прикреплять файлы к сообщениям
Вы можете скачивать файлы