(Opera) Montserrat Caballe - The Ultimate Collection (Arias by Puccini, Verdi, Donizetti, Bellini, Cilea и ранее не издававшиеся на CD записи) - 1999, APE (image+.cue) lossless


 

[Цитировать]

Montserrat Caballé - The Ultimate Collection
Жанр: Opera
Страна-производитель диска: EU
Год издания диска: 1999
Издатель (лейбл): RCA Red Seal
Номер по каталогу: 63464
Дата записи: 1964-1995
Аудиокодек: APE
Тип рипа: image+.cue
Битрейт аудио: lossless
Продолжительность: 77'14+75'51
Источник: собственный рип
Наличие сканов в содержимом раздачи: да
Треклист / Исполнители:
CD1
1. La bohème, Sì. Mi chiamano Mimì - Giacomo Puccini
2. Norma, Casta diva - Vincenzo Bellini
3. Le siège de Corinthe, Giusto ciel! In tal periglio - Gioachino Rossini
4. Sapho, O ma lyre immortelle - Charles Gounod
5. Semiramide, Serbami ognor...Alle più calde immagin - Gioachino Rossini
6. Otello, Piangea cantando - Giuseppe Verdi
7. Otello, Ave Maria, for voice & strings - Giuseppe Verdi
8. Hérodiade, Il est doux, il est bon - Jules Massenet
9. Lucrezia Borgia, Tranquillo ei posa...Com'è bello! - Gaetano Donizetti
10. Suor Angelica, Senza mamma - Giacomo Puccini
11. Rigoletto, Caro nome - Giuseppe Verdi
12. La sonnambula, Ah! non credea mirarti - Vincenzo Bellini

CD2

1. La Traviata, È strano, è strano! - Giuseppe Verdi
2. La Traviata, Follie! Follie! - Giuseppe Verdi
3. La Traviata, Sempre libera degg'io - Giuseppe Verdi
4. Tosca, Vissi d'arte - Giacomo Puccini
5. Il Corsaro, Egli non riede ancora! - Giuseppe Verdi
6. Il Corsaro, Non so le tetre immagini - Giuseppe Verdi
7. Armida, D'amore al dolce impero - Gioachino Rossini
8. Pagliacci, Qual fiamma avea nel guardo! - Ruggero Leoncavallo
9. Roberto Devereux, E Sara in questi orribili momenti...Vivi, ingrato - Gaetano Donizetti
10. Il Trovatore, D'amor sull'ali rosee - Giuseppe Verdi
11. Stabat mater, Inflammatus et accensus - Gioachino Rossini
12. Adriana Lecouvreur, Io son l'umile ancella - Francesco Cilèa
13. Anna Bolena, Al dolce guidami - Gaetano Donizetti
14. Adelson e Salvini, Dopo l'oscuro nembo - Vincenzo Bellini
15. I Vespri siciliani, Arrigo! Ah, parli a un core - Giuseppe Verdi

Лог создания рипа

CD1

Exact Audio Copy V1.0 beta 6 from 9. April 2015
EAC extraction logfile from 4. October 2015, 12:22
Montserrat Caballé / The Ultimate Collection CD1
Used drive : TSSTcorpCDDVDW SE-208AB Adapter: 1 ID: 1
Read mode : Secure
Utilize accurate stream : Yes
Defeat audio cache : Yes
Make use of C2 pointers : No
Read offset correction : 6
Overread into Lead-In and Lead-Out : No
Fill up missing offset samples with silence : Yes
Delete leading and trailing silent blocks : No
Null samples used in CRC calculations : Yes
Used interface : Native Win32 interface for Win NT & 2000
Used output format : Monkey's Audio Lossless Encoder
Selected bitrate : High Lossless Compression
Quality : High
Add ID3 tag : Yes
Command line compressor : C:\Program Files (x86)\Exact Audio Copy\MAC\MAC.exe
TOC of the extracted CD
Track | Start | Length | Start sector | End sector
---------------------------------------------------------
1 | 0:00.00 | 4:45.50 | 0 | 21424
2 | 4:45.50 | 6:48.57 | 21425 | 52081
3 | 11:34.32 | 3:35.08 | 52082 | 68214
4 | 15:09.40 | 8:23.37 | 68215 | 105976
5 | 23:33.02 | 8:05.03 | 105977 | 142354
6 | 31:38.05 | 9:19.55 | 142355 | 184334
7 | 40:57.60 | 5:46.50 | 184335 | 210334
8 | 46:44.35 | 5:06.67 | 210335 | 233351
9 | 51:51.27 | 9:07.50 | 233352 | 274426
10 | 60:59.02 | 5:01.08 | 274427 | 297009
11 | 66:00.10 | 6:29.05 | 297010 | 326189
12 | 72:29.15 | 4:43.17 | 326190 | 347431
Range status and errors
Selected range
Filename D:\EAC\Montserrat Caballé - The Ultimate Collection CD1.wav
Peak level 94.4 %
Extraction speed 5.2 X
Range quality 99.9 %
Test CRC 829BC055
Copy CRC 829BC055
Copy OK
No errors occurred
AccurateRip summary
Track 1 accurately ripped (confidence 4) [A4F1DDD3] (AR v2)
Track 2 accurately ripped (confidence 4) [558CA81B] (AR v2)
Track 3 accurately ripped (confidence 4) [82446985] (AR v2)
Track 4 accurately ripped (confidence 4) [B53A710E] (AR v2)
Track 5 accurately ripped (confidence 4) [766A5521] (AR v2)
Track 6 accurately ripped (confidence 4) [D3194F80] (AR v2)
Track 7 accurately ripped (confidence 4) [A9C2EAD2] (AR v2)
Track 8 accurately ripped (confidence 4) [C449D287] (AR v2)
Track 9 accurately ripped (confidence 4) [92114BBD] (AR v2)
Track 10 accurately ripped (confidence 4) [D2D10DD8] (AR v2)
Track 11 accurately ripped (confidence 4) [28463A04] (AR v2)
Track 12 accurately ripped (confidence 4) [DE176B1B] (AR v2)
All tracks accurately ripped
End of status report
---- CUETools DB Plugin V2.1.6
[CTDB TOCID: pEpgF_iveurpfIjX_cCC.73OzOw-] found
Submit result: pEpgF_iveurpfIjX_cCC.73OzOw- has been confirmed
Track | CTDB Status
1 | (9/9) Accurately ripped
2 | (9/9) Accurately ripped
3 | (9/9) Accurately ripped
4 | (9/9) Accurately ripped
5 | (9/9) Accurately ripped
6 | (9/9) Accurately ripped
7 | (9/9) Accurately ripped
8 | (9/9) Accurately ripped
9 | (9/9) Accurately ripped
10 | (9/9) Accurately ripped
11 | (9/9) Accurately ripped
12 | (9/9) Accurately ripped
==== Log checksum 8D9371E13FC8AE21AA259667C0DD24ED0E5F4DFA5003619962B0DF6281DE8681 ====

CD2

Exact Audio Copy V1.0 beta 6 from 9. April 2015
EAC extraction logfile from 4. October 2015, 12:22
Montserrat Caballé / The Ultimate Collection CD2
Used drive : TS8XDVDSTRANSCEND Adapter: 1 ID: 2
Read mode : Secure
Utilize accurate stream : Yes
Defeat audio cache : Yes
Make use of C2 pointers : No
Read offset correction : 6
Overread into Lead-In and Lead-Out : No
Fill up missing offset samples with silence : Yes
Delete leading and trailing silent blocks : No
Null samples used in CRC calculations : Yes
Used interface : Native Win32 interface for Win NT & 2000
Used output format : Monkey's Audio Lossless Encoder
Selected bitrate : High Lossless Compression
Quality : High
Add ID3 tag : Yes
Command line compressor : C:\Program Files (x86)\Exact Audio Copy\MAC\MAC.exe
TOC of the extracted CD
Track | Start | Length | Start sector | End sector
---------------------------------------------------------
1 | 0:00.00 | 6:10.47 | 0 | 27796
2 | 6:10.47 | 1:08.08 | 27797 | 32904
3 | 7:18.55 | 3:45.12 | 32905 | 49791
4 | 11:03.67 | 3:23.45 | 49792 | 65061
5 | 14:27.37 | 2:10.03 | 65062 | 74814
6 | 16:37.40 | 3:44.40 | 74815 | 91654
7 | 20:22.05 | 7:12.02 | 91655 | 124056
8 | 27:34.07 | 4:56.15 | 124057 | 146271
9 | 32:30.22 | 7:14.25 | 146272 | 178846
10 | 39:44.47 | 5:41.33 | 178847 | 204454
11 | 45:26.05 | 5:20.12 | 204455 | 228466
12 | 50:46.17 | 4:04.50 | 228467 | 246816
13 | 54:50.67 | 10:07.55 | 246817 | 292396
14 | 64:58.47 | 6:01.63 | 292397 | 319534
15 | 71:00.35 | 4:49.37 | 319535 | 341246
Range status and errors
Selected range
Filename D:\EAC\Montserrat Caballé - The Ultimate Collection CD2.wav
Peak level 93.2 %
Extraction speed 5.2 X
Range quality 100.0 %
Test CRC 06B4C7C4
Copy CRC 06B4C7C4
Copy OK
No errors occurred
AccurateRip summary
Track 1 accurately ripped (confidence 3) [F7BEC515] (AR v2)
Track 2 accurately ripped (confidence 3) [8D1AA7EF] (AR v2)
Track 3 accurately ripped (confidence 3) [6E4873EC] (AR v2)
Track 4 accurately ripped (confidence 3) [6F4A59FD] (AR v2)
Track 5 accurately ripped (confidence 3) [6936BC0F] (AR v2)
Track 6 accurately ripped (confidence 3) [4B978095] (AR v2)
Track 7 accurately ripped (confidence 3) [783DC013] (AR v2)
Track 8 accurately ripped (confidence 3) [656964B9] (AR v2)
Track 9 accurately ripped (confidence 3) [3E7FE658] (AR v2)
Track 10 accurately ripped (confidence 3) [5FC9FF0B] (AR v2)
Track 11 accurately ripped (confidence 3) [8B458736] (AR v2)
Track 12 accurately ripped (confidence 3) [0AC0A36F] (AR v2)
Track 13 accurately ripped (confidence 3) [FFD3058B] (AR v2)
Track 14 accurately ripped (confidence 3) [DFB43AD0] (AR v2)
Track 15 accurately ripped (confidence 3) [7C330938] (AR v2)
All tracks accurately ripped
End of status report
---- CUETools DB Plugin V2.1.6
[CTDB TOCID: EXZRys8o_Fb4xIXEv0dk2y1CeA8-] found
Submit result: unrecognized or virtual drive
Track | CTDB Status
1 | (10/10) Accurately ripped
2 | (10/10) Accurately ripped
3 | (10/10) Accurately ripped
4 | (10/10) Accurately ripped
5 | (10/10) Accurately ripped
6 | (10/10) Accurately ripped
7 | (10/10) Accurately ripped
8 | (10/10) Accurately ripped
9 | (10/10) Accurately ripped
10 | (10/10) Accurately ripped
11 | (10/10) Accurately ripped
12 | (10/10) Accurately ripped
13 | (10/10) Accurately ripped
14 | (10/10) Accurately ripped
15 | (10/10) Accurately ripped
==== Log checksum 3032D6B724F407BA8DED9B2BFBA494A2A2B2AABC506F563DD7ED81D427D759A8 ====

Содержание индексной карты (.CUE)

CD1

REM GENRE Opera
REM DATE 1999
REM DISCID A512180C
REM COMMENT "ExactAudioCopy v1.0b6"
CATALOG 7432137714240
PERFORMER "Montserrat Caballé"
TITLE "The Ultimate Collection CD1"
FILE "Montserrat Caballé - The Ultimate Collection CD1.ape" WAVE
TRACK 01 AUDIO
TITLE "La Bohème - Si. Mi Chiamano Mimi"
PERFORMER "Montserrat Caballé"
INDEX 01 00:00:00
TRACK 02 AUDIO
TITLE "Norma - Casta Diva"
PERFORMER "Montserrat Caballé"
INDEX 00 04:41:57
INDEX 01 04:45:50
TRACK 03 AUDIO
TITLE "Assedio di Corinto - Giusto Ciel! In Tal Periglio"
PERFORMER "Montserrat Caballé"
INDEX 00 11:31:27
INDEX 01 11:34:32
TRACK 04 AUDIO
TITLE "Sappho - O Ma Lyre Immortalle"
PERFORMER "Montserrat Caballé"
INDEX 00 15:05:25
INDEX 01 15:09:40
TRACK 05 AUDIO
TITLE "Semiramide - Serbami ognor... Alle più calde immagini"
PERFORMER "Montserrat Caballé"
INDEX 00 23:28:40
INDEX 01 23:33:02
TRACK 06 AUDIO
TITLE "Otello - Piangea Cantando (Willow Song)"
PERFORMER "Montserrat Caballé"
INDEX 00 31:32:65
INDEX 01 31:38:05
TRACK 07 AUDIO
TITLE "Otello - Ave Maria"
PERFORMER "Montserrat Caballé"
INDEX 01 40:57:60
TRACK 08 AUDIO
TITLE "Salomé - Il Est Doux, Il Est Bon"
PERFORMER "Montserrat Caballé"
INDEX 00 46:39:40
INDEX 01 46:44:35
TRACK 09 AUDIO
TITLE "Lucrezia Borgia - Tranquillo Ei Posa... Com'e Bello!"
PERFORMER "Montserrat Caballé"
INDEX 00 51:48:42
INDEX 01 51:51:27
TRACK 10 AUDIO
TITLE "Suor Angelica - Senza Mamma"
PERFORMER "Montserrat Caballé"
INDEX 00 60:55:70
INDEX 01 60:59:02
TRACK 11 AUDIO
TITLE "Rigoletto - Caro Nome"
PERFORMER "Montserrat Caballé"
INDEX 00 65:55:62
INDEX 01 66:00:10
TRACK 12 AUDIO
TITLE "La Sonnambula - Ah! Non Credea Mirarti"
PERFORMER "Montserrat Caballé"
INDEX 00 72:25:20
INDEX 01 72:29:15

CD2

REM GENRE Opera
REM DATE 1999
REM DISCID E411C50F
REM COMMENT "ExactAudioCopy v1.0b6"
CATALOG 7432137714240
PERFORMER "Montserrat Caballé"
TITLE "The Ultimate Collection CD2"
FILE "Montserrat Caballé - The Ultimate Collection CD2.ape" WAVE
TRACK 01 AUDIO
TITLE "E strano, e strano! (La Traviata)"
PERFORMER "Montserrat Caballé"
INDEX 01 00:00:00
TRACK 02 AUDIO
TITLE "Follie! Follie! (La Traviata)"
PERFORMER "Montserrat Caballé"
INDEX 01 06:10:47
TRACK 03 AUDIO
TITLE "Sempre libera degg'io (La Traviata)"
PERFORMER "Montserrat Caballé"
INDEX 01 07:18:55
TRACK 04 AUDIO
TITLE "Vissi d'arte (Tosca)"
PERFORMER "Montserrat Caballé"
INDEX 00 11:00:35
INDEX 01 11:03:67
TRACK 05 AUDIO
TITLE "Egli non riede ancora! (Il Corsaro)"
PERFORMER "Montserrat Caballé"
INDEX 00 14:21:57
INDEX 01 14:27:37
TRACK 06 AUDIO
TITLE "Non so le tetre immagini (Il Corsaro)"
PERFORMER "Montserrat Caballé"
INDEX 01 16:37:40
TRACK 07 AUDIO
TITLE "D'amore al dolce impero (Armida)"
PERFORMER "Montserrat Caballé"
INDEX 00 20:18:40
INDEX 01 20:22:05
TRACK 08 AUDIO
TITLE "Qual fiamma avea nel guardo! (I Pagliacci)"
PERFORMER "Montserrat Caballé"
INDEX 00 27:31:20
INDEX 01 27:34:07
TRACK 09 AUDIO
TITLE "E Sara in questi... Vivi, ingrato (Roberto Devereux)"
PERFORMER "Montserrat Caballé"
INDEX 00 32:27:55
INDEX 01 32:30:22
TRACK 10 AUDIO
TITLE "D'amor sull'ali rosee (Il Trovatore)"
PERFORMER "Montserrat Caballé"
INDEX 00 39:42:15
INDEX 01 39:44:47
TRACK 11 AUDIO
TITLE "Inflammuatus et accensus (Stabat Mater)"
PERFORMER "Montserrat Caballé"
INDEX 00 45:21:02
INDEX 01 45:26:05
TRACK 12 AUDIO
TITLE "Io son l'umile ancella (Adriana Lecouvreur)"
PERFORMER "Montserrat Caballé"
INDEX 00 50:43:05
INDEX 01 50:46:17
TRACK 13 AUDIO
TITLE "Al dolce guidami (Anna Bolena)"
PERFORMER "Montserrat Caballé"
INDEX 00 54:46:21
INDEX 01 54:50:67
TRACK 14 AUDIO
TITLE "Dopo l'oscuro nembo (Adelson e Salvini)"
PERFORMER "Montserrat Caballé"
INDEX 00 64:53:17
INDEX 01 64:58:47
TRACK 15 AUDIO
TITLE "Arrigo! Ah, parli a un core (I Vespri Siciliani)"
PERFORMER "Montserrat Caballé"
INDEX 00 70:56:47
INDEX 01 71:00:35



Показать сообщения:    

Текущее время: 03-Дек 09:50

Часовой пояс: UTC + 3


Вы не можете начинать темы
Вы не можете отвечать на сообщения
Вы не можете редактировать свои сообщения
Вы не можете удалять свои сообщения
Вы не можете голосовать в опросах
Вы не можете прикреплять файлы к сообщениям
Вы не можете скачивать файлы