(Opera) Auber - Le Domino Noir (Micheau, Berthon, Peyron, Rey - Chœurs de la RTF, Orchestre Radio-Lyrique, Gressier) - 2007, APE (image+.cue) lossless


 

[Цитировать]

Daniel-François Auber - Le Domino Noir
Жанр: Opera
Страна-производитель диска: Germany
Год издания диска: 2007
Издатель (лейбл): Cantus Classics
Номер по каталогу: 5.01006
Дата записи: 1950
Аудиокодек: APE
Тип рипа: image+.cue
Битрейт аудио: lossless
Продолжительность: 36'37+46'45
Источник: собственный рип
Наличие сканов в содержимом раздачи: да
Треклист:
CD1
1. Overture
2. Act 1. Tout est-il préparé?
3. Act 1. Le trouble et la froeur
4. Act 1. Oui je suis? Une fée, un bon ange
5. Act 1. Parlez, parlez, quel destin est le nôtre?
6. Act 2. S'il est sur terre un emploi
7. Act 2. Réveillons, réveillons l'amour et les belles
8. Act 2. D'où venez-vous, ma chère?
CD2
1. Act 2. La belle Inès fait florès
2. Act 2. C'est la tante!
3. Act 2. Nous allons avoir, grâce à Dieu
4. Act 2. Téméraire! Impie! Où vas-tu?
5. Act 2. L'heure, la nuit, tout m'est propice!
6. Act 2. Amour, viens finir mon supplice
7. Act 3. Au réfectoire, à la priére
8. Act 3. Je suis sauvée enfin!
9. Act 3. Ah! Quel malheur pour nous!
10. Act 3. À ces accords religieux
11. Act 3. Mes sœurs, mes chères sœurs
Исполнители:
Daniel-François Auber - Le Domino Noir
Opéra comique in 3 Acts
Text: Eugène Scribe
Angèle - Janine Micheau, mezzo-soprano
Brigitte - Mireille Berthon, soprano
Horace - Joseph Peyron, tenor
Juliano - Gaston Rey, tenor
Gil Perez - Gilbert Moryn, bass
Ursula - Freda Betti, soprano
Lord Elfort - Bernard Demigny, bariton
Chœurs de la RTF
Orchestre Radio-Lyrique
Conductor: Jules Gressier
Paris, RTF, 31. December 1950

Лог создания рипа

CD1

Exact Audio Copy V1.0 beta 6 from 9. April 2015
EAC extraction logfile from 29. September 2015, 23:26
Micheau_Peyron_Berton_Moryn_Choeur_et_Orch_Radio_Lyrique_Paris_Grssier / Auber - Le Domino Noir, Gressier CD1
Used drive : TS8XDVDSTRANSCEND Adapter: 1 ID: 1
Read mode : Secure
Utilize accurate stream : Yes
Defeat audio cache : Yes
Make use of C2 pointers : No
Read offset correction : 6
Overread into Lead-In and Lead-Out : No
Fill up missing offset samples with silence : Yes
Delete leading and trailing silent blocks : No
Null samples used in CRC calculations : Yes
Used interface : Native Win32 interface for Win NT & 2000
Used output format : Monkey's Audio Lossless Encoder
Selected bitrate : High Lossless Compression
Quality : High
Add ID3 tag : Yes
Command line compressor : C:\Program Files (x86)\Exact Audio Copy\MAC\MAC.exe
TOC of the extracted CD
Track | Start | Length | Start sector | End sector
---------------------------------------------------------
1 | 0:00.00 | 8:05.63 | 0 | 36437
2 | 8:05.63 | 3:48.58 | 36438 | 53595
3 | 11:54.46 | 6:16.16 | 53596 | 81811
4 | 18:10.62 | 2:57.51 | 81812 | 95137
5 | 21:08.38 | 6:02.36 | 95138 | 122323
6 | 27:10.74 | 3:12.47 | 122324 | 136770
7 | 30:23.46 | 4:01.57 | 136771 | 154902
8 | 34:25.28 | 2:12.09 | 154903 | 164811
Range status and errors
Selected range
Filename D:\EAC\Auber - Le Domino Noir, Gressier CD1.wav
Peak level 100.0 %
Extraction speed 1.8 X
Range quality 99.9 %
Test CRC 965687DC
Copy CRC 965687DC
Copy OK
No errors occurred
AccurateRip summary
Track 1 cannot be verified as accurate (confidence 2) [56F50E97], AccurateRip returned [0A1A2EF7] (AR v2)
Track 2 accurately ripped (confidence 2) [EB803D4F] (AR v1)
Track 3 accurately ripped (confidence 2) [89621149] (AR v1)
Track 4 accurately ripped (confidence 2) [CB3563A7] (AR v1)
Track 5 accurately ripped (confidence 2) [327844D8] (AR v1)
Track 6 accurately ripped (confidence 2) [25D7C890] (AR v1)
Track 7 accurately ripped (confidence 2) [5B916757] (AR v1)
Track 8 accurately ripped (confidence 2) [4EE20108] (AR v1)
7 track(s) accurately ripped
1 track(s) could not be verified as accurate
Some tracks could not be verified as accurate
End of status report
---- CUETools DB Plugin V2.1.6
[CTDB TOCID: my4zx5zY5ApYFeUC2.M7jmZNjdM-] disk not present in database
Submit result: unrecognized or virtual drive
==== Log checksum 0650BFCD3708D2A61D63AC93005C577251908A2F0B6B68DBFB7C5723E8BF1811 ====

CD2

Exact Audio Copy V1.0 beta 6 from 9. April 2015
EAC extraction logfile from 29. September 2015, 23:58
Micheau_Peyron_Berton_Moryn_Choeur_et_Orch_Radio_Lyrique_Paris_Grssier / Auber - Le Domino Noir, Gressier CD2
Used drive : TSSTcorpCDDVDW SE-208AB Adapter: 1 ID: 2
Read mode : Secure
Utilize accurate stream : Yes
Defeat audio cache : Yes
Make use of C2 pointers : No
Read offset correction : 6
Overread into Lead-In and Lead-Out : No
Fill up missing offset samples with silence : Yes
Delete leading and trailing silent blocks : No
Null samples used in CRC calculations : Yes
Used interface : Native Win32 interface for Win NT & 2000
Used output format : Monkey's Audio Lossless Encoder
Selected bitrate : High Lossless Compression
Quality : High
Add ID3 tag : Yes
Command line compressor : C:\Program Files (x86)\Exact Audio Copy\MAC\MAC.exe
TOC of the extracted CD
Track | Start | Length | Start sector | End sector
---------------------------------------------------------
1 | 0:00.00 | 4:21.17 | 0 | 19591
2 | 4:21.17 | 1:44.27 | 19592 | 27418
3 | 6:05.44 | 3:25.08 | 27419 | 42801
4 | 9:30.52 | 2:37.73 | 42802 | 54649
5 | 12:08.50 | 1:48.63 | 54650 | 62812
6 | 13:57.38 | 6:06.42 | 62813 | 90304
7 | 20:04.05 | 3:11.40 | 90305 | 104669
8 | 23:15.45 | 6:05.36 | 104670 | 132080
9 | 29:21.06 | 8:41.37 | 132081 | 171192
10 | 38:02.43 | 5:12.60 | 171193 | 194652
11 | 43:15.28 | 3:30.23 | 194653 | 210425
Range status and errors
Selected range
Filename D:\EAC\Auber - Le Domino Noir, Gressier CD2.wav
Peak level 100.0 %
Extraction speed 1.9 X
Range quality 100.0 %
Test CRC 3421CACF
Copy CRC 3421CACF
Copy OK
No errors occurred
AccurateRip summary
Track 1 accurately ripped (confidence 2) [40F89F8E] (AR v1)
Track 2 accurately ripped (confidence 2) [F98ED227] (AR v1)
Track 3 accurately ripped (confidence 2) [17E6E451] (AR v1)
Track 4 accurately ripped (confidence 2) [5772C040] (AR v1)
Track 5 accurately ripped (confidence 2) [F828C18D] (AR v1)
Track 6 accurately ripped (confidence 2) [3C4AFAB9] (AR v1)
Track 7 accurately ripped (confidence 2) [8AB0EAE7] (AR v1)
Track 8 accurately ripped (confidence 2) [F5D44DAC] (AR v1)
Track 9 accurately ripped (confidence 2) [9A0B442C] (AR v1)
Track 10 accurately ripped (confidence 2) [F843776F] (AR v1)
Track 11 accurately ripped (confidence 2) [9DD62FC3] (AR v1)
All tracks accurately ripped
End of status report
---- CUETools DB Plugin V2.1.6
[CTDB TOCID: mQJuCOlGCXp8RUtBjjYSO6tz3W0-] disk not present in database
Submit result: mQJuCOlGCXp8RUtBjjYSO6tz3W0- has been uploaded
==== Log checksum EF99B469EBCC7CC26C54EA9B999260FC82AB99260993CC1D4F803DD151FB5C74 ====

Содержание индексной карты (.CUE)

CD1

REM GENRE Opera
REM DATE 1950
REM DISCID 64089508
REM COMMENT "ExactAudioCopy v1.0b6"
PERFORMER "Micheau_Peyron_Berton_Moryn_Choeur_et_Orch_Radio_Lyrique_Paris_Grssier"
TITLE "Auber - Le Domino Noir, Gressier CD1"
FILE "Auber - Le Domino Noir, Gressier CD1.ape" WAVE
TRACK 01 AUDIO
TITLE "Overture"
PERFORMER "Micheau_Peyron_Berton_Moryn_Choeur_et_Orch_Radio_Lyrique_Paris_Grssier"
INDEX 01 00:00:00
TRACK 02 AUDIO
TITLE "Act 1. Tout est-il préparé?"
PERFORMER "Micheau_Peyron_Berton_Moryn_Choeur_et_Orch_Radio_Lyrique_Paris_Grssier"
INDEX 01 08:05:63
TRACK 03 AUDIO
TITLE "Act 1. Le trouble et la froeur"
PERFORMER "Micheau_Peyron_Berton_Moryn_Choeur_et_Orch_Radio_Lyrique_Paris_Grssier"
INDEX 01 11:54:46
TRACK 04 AUDIO
TITLE "Act 1. Oui je suis? Une fée, un bon ange"
PERFORMER "Micheau_Peyron_Berton_Moryn_Choeur_et_Orch_Radio_Lyrique_Paris_Grssier"
INDEX 01 18:10:62
TRACK 05 AUDIO
TITLE "Act 1. Parlez, parlez, quel destin est le nôtre?"
PERFORMER "Micheau_Peyron_Berton_Moryn_Choeur_et_Orch_Radio_Lyrique_Paris_Grssier"
INDEX 01 21:08:38
TRACK 06 AUDIO
TITLE "Act 2. S'il est sur terre un emploi"
PERFORMER "Micheau_Peyron_Berton_Moryn_Choeur_et_Orch_Radio_Lyrique_Paris_Grssier"
INDEX 01 27:10:74
TRACK 07 AUDIO
TITLE "Act 2. Réveillons, réveillons l'amour et les belles"
PERFORMER "Micheau_Peyron_Berton_Moryn_Choeur_et_Orch_Radio_Lyrique_Paris_Grssier"
INDEX 01 30:23:46
TRACK 08 AUDIO
TITLE "Act 2. D'où venez-vous, ma chère?"
PERFORMER "Micheau_Peyron_Berton_Moryn_Choeur_et_Orch_Radio_Lyrique_Paris_Grssier"
INDEX 01 34:25:28

CD2

REM GENRE Opera
REM DATE 1950
REM DISCID 9E0AF50B
REM COMMENT "ExactAudioCopy v1.0b6"
PERFORMER "Micheau_Peyron_Berton_Moryn_Choeur_et_Orch_Radio_Lyrique_Paris_Grssier"
TITLE "Auber - Le Domino Noir, Gressier CD2"
FILE "Auber - Le Domino Noir, Gressier CD2.ape" WAVE
TRACK 01 AUDIO
TITLE "Act 2. La belle Inès fait florès"
PERFORMER "Micheau_Peyron_Berton_Moryn_Choeur_et_Orch_Radio_Lyrique_Paris_Grssier"
INDEX 01 00:00:00
TRACK 02 AUDIO
TITLE "Act 2. C'est la tante!"
PERFORMER "Micheau_Peyron_Berton_Moryn_Choeur_et_Orch_Radio_Lyrique_Paris_Grssier"
INDEX 01 04:21:17
TRACK 03 AUDIO
TITLE "Act 2. Nous allons avoir, grâce à Dieu"
PERFORMER "Micheau_Peyron_Berton_Moryn_Choeur_et_Orch_Radio_Lyrique_Paris_Grssier"
INDEX 01 06:05:44
TRACK 04 AUDIO
TITLE "Act 2. Téméraire! Impie! Où vas-tu?"
PERFORMER "Micheau_Peyron_Berton_Moryn_Choeur_et_Orch_Radio_Lyrique_Paris_Grssier"
INDEX 01 09:30:52
TRACK 05 AUDIO
TITLE "Act 2. L'heure, la nuit, tout m'est propice!"
PERFORMER "Micheau_Peyron_Berton_Moryn_Choeur_et_Orch_Radio_Lyrique_Paris_Grssier"
INDEX 01 12:08:50
TRACK 06 AUDIO
TITLE "Act 2. Amour, viens finir mon supplice"
PERFORMER "Micheau_Peyron_Berton_Moryn_Choeur_et_Orch_Radio_Lyrique_Paris_Grssier"
INDEX 01 13:57:38
TRACK 07 AUDIO
TITLE "Act 3. Au réfectoire, à la priére"
PERFORMER "Micheau_Peyron_Berton_Moryn_Choeur_et_Orch_Radio_Lyrique_Paris_Grssier"
INDEX 01 20:04:05
TRACK 08 AUDIO
TITLE "Act 3. Je suis sauvée enfin!"
PERFORMER "Micheau_Peyron_Berton_Moryn_Choeur_et_Orch_Radio_Lyrique_Paris_Grssier"
INDEX 01 23:15:45
TRACK 09 AUDIO
TITLE "Act 3. Ah! Quel malheur pour nous!"
PERFORMER "Micheau_Peyron_Berton_Moryn_Choeur_et_Orch_Radio_Lyrique_Paris_Grssier"
INDEX 01 29:21:06
TRACK 10 AUDIO
TITLE "Act 3. À ces accords religieux"
PERFORMER "Micheau_Peyron_Berton_Moryn_Choeur_et_Orch_Radio_Lyrique_Paris_Grssier"
INDEX 01 38:02:43
TRACK 11 AUDIO
TITLE "Act 3. Mes sœurs, mes chères sœurs"
PERFORMER "Micheau_Peyron_Berton_Moryn_Choeur_et_Orch_Radio_Lyrique_Paris_Grssier"
INDEX 01 43:15:28



Показать сообщения:    

Текущее время: 10-Дек 10:00

Часовой пояс: UTC + 3


Вы не можете начинать темы
Вы не можете отвечать на сообщения
Вы не можете редактировать свои сообщения
Вы не можете удалять свои сообщения
Вы не можете голосовать в опросах
Вы не можете прикреплять файлы к сообщениям
Вы не можете скачивать файлы