Виктор Цой. Рождение Легенды (Владимир Исаев, Михаил Белов, Дмитрий Новиков.) [15.08.2015, документальный, IPTVRip]


Статистика раздачи [Обновить пиров]
Размер:  793 MB   |    Зарегистрирован:  8 месяцев 19 дней   |    Скачан:  0 раз

Полного источника не было: Никогда

 
   
 
 
 

[Цитировать]

Виктор Цой. Рождение Легенды
Дата/Год выпуска: 15.08.2015
Страна: Россия
Жанр: документальный
Продолжительность: 00:39:24
Перевод: Не требуется
Русские субтитры: нет
Оригинальная аудиодорожка: русский
Режиссер: Владимир Исаев, Михаил Белов, Дмитрий Новиков.
Телеканал: РенТВ
Описание: День, когда оборвалась жизнь и родилась легенда… 25 лет назад - 15 августа 1990 года погиб Виктор Цой. Впервые за 10 лет друзья Виктора Цоя и поклонники, ставшие знаменитыми, соберутся вместе и расскажут, как группе «Кино» удалось стать не только культурным феноменом перестройки, но и голосом целого поколения.
В фильме зрителя ждут эксклюзивные интервью: своими воспоминаниями поделятся телеведущие Владимир Познер и Дмитрий Дибров, певица Джоанна Стингрей, музыкант и звукорежиссёр Алексей Вишня, участник первого состава группы «Кино» Алексей Рыбин, бас-гитарист группы «Кино» Александр Титов, медиаменеджер Константин Эрнст, журналисты Евгений Додолев и Александр Любимов, учителя Виктора Цоя и многие другие.
качество: IPTVRip
формат: MKV
Видео: AVC; 720x576; 16х9 анаморф.; 2565 Кбит/сек; 25 к/сек.
Аудио: MP2; 48 КГц; 192 Кбит/сек; 2.0 mono

MediaInfo

Общее
Уникальный идентификатор : 219008241891518975382534349775031942640 (0xA4C373FF30C4528C92C8BA4E372EBDF0)
Формат : Matroska
Версия формата : Version 2
Размер файла : 793 Мбайт
Продолжительность : 39 м.
Общий поток : 2813 Кбит/сек
Название фильма : Виктор Цой. Рождение Легенды
Программа кодирования : mkvmerge v7.2.0 ('On Every Street') 32bit built on Sep 13 2014 15:42:11
Библиотека кодирования : libebml v1.3.0 + libmatroska v1.4.1
DURATION : 00:39:24.144000000
NUMBER_OF_FRAMES : 98506
NUMBER_OF_BYTES : 56739456
_STATISTICS_WRITING_APP : mkvmerge v7.2.0 ('On Every Street') 32bit built on Sep 13 2014 15:42:11
_STATISTICS_WRITING_DATE_UTC : 2015-10-02 22:11:12
_STATISTICS_TAGS : BPS DURATION NUMBER_OF_FRAMES NUMBER_OF_BYTES
Видео
Идентификатор : 1
Формат : AVC
Формат/Информация : Advanced Video Codec
Профиль формата : Main@L3
Параметр CABAC формата : Да
Параметр ReFrames формата : 3 кадра
Идентификатор кодека : V_MPEG4/ISO/AVC
Продолжительность : 39 м.
Битрейт : 2565 Кбит/сек
Ширина : 720 пикселей
Высота : 576 пикселей
Соотношение сторон : 16:9
Режим частоты кадров : Постоянный
Частота кадров : 25,000 кадров/сек
Стандарт вещания : Component
Цветовое пространство : YUV
Субдискретизация насыщенности : 4:2:0
Битовая глубина : 8 бит
Тип развёртки : Чересстрочная
Порядок развёртки : Верхнее поле первое
Бит/(Пиксели*Кадры) : 0.247
Размер потока : 723 Мбайт (91%)
Заголовок : Виктор Цой. Рождение Легенды. РенТВ. 15/08/2015. Captured by Voyager
Язык : Russian
Default : Да
Forced : Нет
Цветовой диапазон : Limited
Основные цвета : BT.601 PAL
Характеристики трансфера : BT.470 System B, BT.470 System G
Коэффициенты матрицы : BT.601
Аудио
Идентификатор : 2
Формат : MPEG Audio
Версия формата : Version 1
Профиль формата : Layer 2
Идентификатор кодека : A_MPEG/L2
Идентификатор кодека/Подсказка : MP2
Продолжительность : 39 м.
Вид битрейта : Постоянный
Битрейт : 192 Кбит/сек
Каналы : 2 канала
Частота : 48,0 КГц
Метод сжатия : С потерями
Размер потока : 54,1 Мбайт (7%)
Заголовок : Русский
Язык : Russian
Default : Да
Forced : Нет
Меню
00:00:00.000 : ru:Начало
00:01:22.572 : ru:Глава 1. Джоанна Стингрэй
00:04:07.493 : ru:Глава 2. Ольга Слёзкина
00:04:58.175 : ru:Глава 3. Ирина Прядеина
00:06:07.085 : ru:Глава 4. Галина Кононова
00:07:19.774 : ru:Глава 5. Екатерина Яковлева
00:07:58.373 : ru:Глава 6. Андрей Тропилло
00:09:32.570 : ru:Глава 7. Алексей Вишня
00:11:01.968 : ru:Глава 8. Алексей Рыбин
00:12:45.601 : ru:Глава 8
00:14:36.981 : ru:Глава 9. БГ
00:15:01.522 : ru:Глава 10. Александр Титов
00:18:49.304 : ru:Глава 11. Взгляд
00:20:34.693 : ru:Глава 12. 1986
00:21:47.300 : ru:Глава 13. Юрий Белишкин
00:22:17.934 : ru:Глава 14. Кино и ТВ
00:26:36.768 : ru:Глава 15. Группа Крови
00:28:02.655 : ru:Глава 16. Ласковый Май
00:28:59.057 : ru:Глава 17. Дмитрий Дибров
00:30:48.147 : ru:Глава 18. Наталья Разлогова
00:32:43.568 : ru:Глава 19. Юрий Айзеншпис
00:34:03.123 : ru:Глава 20. Гибель
00:35:41.661 : ru:Глава 21. Чёрный Альбом
00:38:13.300 : ru:Глава 22. Колокола
00:39:06.574 : ru:Финал

Скриншоты

[teatrix.ru].t22400.torrent 
Торрент: Зарегистрирован [ 2016-03-20 12:35 ] · ADF1DC1ECB9218A23B52AAE8A315F9AE1984DA89

Скачать .torrent

Скачать

16 KB

Статус: проверено
Скачан: 0 раз
Размер: 793 MB
terms.php



Быстрый ответ

Имя:

      
Для отправки сообщений необходимо включить JavaScript
Показать сообщения:    

Текущее время: 08-Дек 19:09

Часовой пояс: UTC + 3


Вы можете начинать темы
Вы можете отвечать на сообщения
Вы не можете редактировать свои сообщения
Вы не можете удалять свои сообщения
Вы не можете голосовать в опросах
Вы не можете прикреплять файлы к сообщениям
Вы можете скачивать файлы