[TR24][SM][OF] W. A. Mozart · Horn Concertos Nos. 1-4 · Dennis Brain, Herbert von Karajan & Philharmonia Orchestra - 1954 (Classical)


Статистика раздачи [Обновить пиров]
Размер:  555 MB   |    Зарегистрирован:  8 месяцев 18 дней   |    Скачан:  1 раз

Полного источника не было: 19 дней

 
   
 
 
 

[Цитировать]

·
·
·

Wolfgang Amadeus Mozart
(1756-1791)
Жанр: Concerto
Носитель: Official Digital Download
Год издания диска: Ⓟ 1954, 2011 EMI Records Ltd.
Год переиздания диска: © 2012 EMI Records Ltd.
Номер по каталогу: v/n
Продолжительность: 53:56
Наличие сканов в содержимом раздачи: artwork
Контейнер: FLAC (*.flac)
Разрядность: 24/96
Количество каналов: 2.0 mono
Формат: tracks
Источник: HDtracks
Pелизер: WEB (thanks to the original customer)

Треклист

Horn Concerto No.1 In D Major K.412
01 I: Allegro 04:43
02 II: Rondo (Allegro) [K.514 version arr.Süßmayr] 03:40
Horn Concerto No.2 In E flat Major K.417
03 I: Allegro Maestoso 06:37
04 II: Andante 03:34
05 III: Rondo 03:37
Horn Concerto No.3 In E flat Major K.447
06 I: Allegro 07:03
07 II: Romance (Larghetto) 04:57
08 III: Allegro 03:45
Horn Concerto No.4 In E flat Major K.495
09 I: Allegro Moderato 08:04
10 II: Romance (Andante Cantabile) 04:26
11 III: Rondo (Allegro Vivace) 03:30

Исполнители

Dennis Brain hornPhilharmonia Orchestra
Herbert von Karajan

Dynamic Range Meter

foobar2000 1.3.8 / Dynamic Range Meter 1.1.1
log date: 2015-09-27 22:29:48
--------------------------------------------------------------------------------
Analyzed: Dennis Brain, Philharmonia Orchestra, Herbert von Karajan / Mozart: Horn Concertos
--------------------------------------------------------------------------------
DR Peak RMS Duration Track
--------------------------------------------------------------------------------
DR12 -1.11 dB -18.04 dB 4:42 01-Concerto for Horn and Orchestra No. 1 in D Major, KV412: I. Allegro
DR13 -1.20 dB -18.62 dB 3:40 02-Concerto for Horn and Orchestra No. 1 in D Major, KV412: II. Rondo (Allegro) (K514 version, arr. Sussmayr)
DR12 -4.57 dB -20.20 dB 6:36 03-Horn Concerto No. 2 in E Flat Major, K.417: I. Allegro maestoso
DR8 -7.48 dB -20.02 dB 3:33 04-Horn Concerto No. 2 in E Flat Major, K.417: II. Andante
DR12 -1.34 dB -18.00 dB 3:38 05-Horn Concerto No. 2 in E Flat Major, K.417: III. Rondo
DR12 -3.34 dB -19.55 dB 6:59 06-Concerto for Horn and Orchestra No. 3 in E flat major, KV447: I. Allegro
DR12 -4.43 dB -20.96 dB 4:55 07-Concerto for Horn and Orchestra No. 3 in E flat major, KV447: II. Romance (Larghetto)
DR13 -0.10 dB -17.85 dB 3:51 08-Concerto for Horn and Orchestra No. 3 in E flat major, KV447: III. Allegro
DR12 -1.62 dB -17.57 dB 7:58 09-Horn Concerto No. 4 in E Flat Major, K.495: I. Allegro moderato
DR9 -4.21 dB -17.53 dB 4:27 10-Horn Concerto No. 4 in E Flat Major, K.495: II. Romance (Andante cantabile)
DR13 -1.08 dB -17.12 dB 3:31 11-Horn Concerto No. 4 in E Flat Major, K.495: III. Rondo (Allegro vivace)
--------------------------------------------------------------------------------
Number of tracks: 11
Official DR value: DR12
Samplerate: 96000 Hz
Channels: 2
Bits per sample: 24
Bitrate: 1433 kbps
Codec: FLAC
================================================================================
[teatrix.ru].t22402.torrent 
Торрент: Зарегистрирован [ 2016-03-20 12:35 ] · 0BC89AFFF6C2E657E21C25FA42A50D5CE2842A47

Скачать .torrent

Скачать

13 KB

Статус: проверено
Скачан: 1 раз
Размер: 555 MB
terms.php



Быстрый ответ

Имя:

      
Для отправки сообщений необходимо включить JavaScript
Показать сообщения:    

Текущее время: 07-Дек 13:39

Часовой пояс: UTC + 3


Вы можете начинать темы
Вы можете отвечать на сообщения
Вы не можете редактировать свои сообщения
Вы не можете удалять свои сообщения
Вы не можете голосовать в опросах
Вы не можете прикреплять файлы к сообщениям
Вы можете скачивать файлы