(Classical) Hector Berlioz - Symphonie fantastique & Lelio (Gerard Depardieu / Riccardo Muti) - 2015, FLAC (image+.cue) lossless


 

[Цитировать]

Hector Berlioz - Symphonie fantastique & Lélio, ou le Retour à la Vie
Жанр: Classical
Страна-производитель диска: USA
Год издания диска: 2015
Издатель (лейбл): Chicago Symphony Orchestra
Номер по каталогу: CSOR 901 1501
Дата записи: IX.2010
Аудиокодек: FLAC
Тип рипа: image+.cue
Битрейт аудио: lossless
Продолжительность: 1:54'42"
Источник: собственный рип
Наличие сканов в содержимом раздачи: да
Треклист:
CD1:
Symphonie fantastique
1. I. Reveries - Passions
2. II. Un bal
3. III. Scene aux champs
4. IV. Marche au supplice
5. V. Songe d'une nuit du sabbat
CD2:
Lélio, ou le Retour à la Vie
01. I. Narration
02. II. Le pecheur
03. III. Narration
04. IV. Choeur d'ombres
05. V. Narration
06. VI. Chanson des brigands
07. VII. Narration
08. VIII. Chant de bonheur
09. IX. Narration
10. X. La harpe eolienne - Souvenirs
11. XI. Narration
12. XII. Fantaisie sur la tempete de Shakespeare
13. XIII. Narration
14. XIV. Coda
Исполнители:
Gérard Depardieu, narrator
Mario Zeffiri, tenor
Kyle Ketelsen, bass-baritone
Chicago Symphony Orchestra
Chicago Symphony Chorus
Riccardo Muti
-

Лог создания рипа - CD1

Exact Audio Copy V1.0 beta 4 from 7. December 2014
EAC extraction logfile from 4. October 2015, 17:30
Hector Berlioz / Symphonie Fantastique
Used drive : TSSTcorpDVDWBD TS-LB23A Adapter: 1 ID: 0
Read mode : Secure
Utilize accurate stream : Yes
Defeat audio cache : Yes
Make use of C2 pointers : No
Read offset correction : 6
Overread into Lead-In and Lead-Out : No
Fill up missing offset samples with silence : Yes
Delete leading and trailing silent blocks : No
Null samples used in CRC calculations : Yes
Used interface : Native Win32 interface for Win NT & 2000
Used output format : User Defined Encoder
Selected bitrate : 128 kBit/s
Quality : High
Add ID3 tag : Yes
Command line compressor : C:\Program Files (x86)\Exact Audio Copy\Flac\flac.exe
Additional command line options : -T "COMMENT=Ripped by GFox" -V -8 %source%
TOC of the extracted CD
Track | Start | Length | Start sector | End sector
---------------------------------------------------------
1 | 0:00.00 | 15:19.23 | 0 | 68947
2 | 15:19.23 | 6:45.40 | 68948 | 99362
3 | 22:04.63 | 16:07.20 | 99363 | 171907
4 | 38:12.08 | 6:40.37 | 171908 | 201944
5 | 44:52.45 | 9:56.30 | 201945 | 246674
Range status and errors
Selected range
Filename D:\Downloads\Hector Berlioz - Symphonie Fantastique.wav
Peak level 99.3 %
Extraction speed 1.6 X
Range quality 100.0 %
Test CRC 7424A671
Copy CRC 7424A671
Copy OK
No errors occurred
AccurateRip summary
Track 1 not present in database
Track 2 not present in database
Track 3 not present in database
Track 4 not present in database
Track 5 not present in database
None of the tracks are present in the AccurateRip database
End of status report
==== Log checksum 2727BD238697C58DE452ACE53D5A91FA2BC8B06B604F8C179A10A604F7A461CC ====

Лог создания рипа - CD2

Exact Audio Copy V1.0 beta 4 from 7. December 2014
EAC extraction logfile from 4. October 2015, 18:51
Hector Berlioz / Lelio
Used drive : TSSTcorpDVDWBD TS-LB23A Adapter: 1 ID: 0
Read mode : Secure
Utilize accurate stream : Yes
Defeat audio cache : Yes
Make use of C2 pointers : No
Read offset correction : 6
Overread into Lead-In and Lead-Out : No
Fill up missing offset samples with silence : Yes
Delete leading and trailing silent blocks : No
Null samples used in CRC calculations : Yes
Used interface : Native Win32 interface for Win NT & 2000
Used output format : User Defined Encoder
Selected bitrate : 128 kBit/s
Quality : High
Add ID3 tag : Yes
Command line compressor : C:\Program Files (x86)\Exact Audio Copy\Flac\flac.exe
Additional command line options : -T "COMMENT=Ripped by GFox" -V -8 %source%
TOC of the extracted CD
Track | Start | Length | Start sector | End sector
---------------------------------------------------------
1 | 0:00.00 | 2:31.69 | 0 | 11393
2 | 2:31.69 | 6:22.24 | 11394 | 40067
3 | 8:54.18 | 2:21.53 | 40068 | 50695
4 | 11:15.71 | 5:48.08 | 50696 | 76803
5 | 17:04.04 | 3:35.42 | 76804 | 92970
6 | 20:39.46 | 4:19.30 | 92971 | 112425
7 | 24:59.01 | 1:45.43 | 112426 | 120343
8 | 26:44.44 | 6:26.12 | 120344 | 149305
9 | 33:10.56 | 1:26.59 | 149306 | 155814
10 | 34:37.40 | 3:56.50 | 155815 | 173564
11 | 38:34.15 | 5:08.34 | 173565 | 196698
12 | 43:42.49 | 14:18.33 | 196699 | 261081
13 | 58:01.07 | 0:47.50 | 261082 | 264656
14 | 58:48.57 | 1:04.56 | 264657 | 269512
Range status and errors
Selected range
Filename D:\Downloads\Hector Berlioz - Lelio.wav
Peak level 96.9 %
Extraction speed 1.7 X
Range quality 100.0 %
Test CRC 84EC41E0
Copy CRC 84EC41E0
Copy OK
No errors occurred
AccurateRip summary
Track 1 not present in database
Track 2 not present in database
Track 3 not present in database
Track 4 not present in database
Track 5 not present in database
Track 6 not present in database
Track 7 not present in database
Track 8 not present in database
Track 9 not present in database
Track 10 not present in database
Track 11 not present in database
Track 12 not present in database
Track 13 not present in database
Track 14 not present in database
None of the tracks are present in the AccurateRip database
End of status report
==== Log checksum EF408AF1ECF84A7C29A3897C6A63AF567B355F4CABDF1D6DB8A9663C25C080D8 ====
-Доп. информация: Имя Риккардо Мути не нуждается в представлении. На свежем диске Чикагского симфонического слушателю предлагается программная "Фантастическая симфония" Берлиоза, а также её своеобразное продолжение лирическая монодрама для рассказчика, тенора, баритона, хора и оркестра "Лелио, или Возвращение к жизни" в блестящем исполнении последнего представителя дирижёрской школы старого века. В роли чтеца известный российский актёр Жерар Депардьё.-



Показать сообщения:    

Текущее время: 04-Дек 11:11

Часовой пояс: UTC + 3


Вы не можете начинать темы
Вы не можете отвечать на сообщения
Вы не можете редактировать свои сообщения
Вы не можете удалять свои сообщения
Вы не можете голосовать в опросах
Вы не можете прикреплять файлы к сообщениям
Вы не можете скачивать файлы