(Opera) Donizetti - Lucia di Lammermoor (Herlea, Voinea, Georgescu, Nastase - Choir & Orchestra of Romanian Opera Bucharest, Petrovici) - 1998, APE (image+.cue) lossless


 

[Цитировать]

Gaetano Donizetti - Lucia di Lammermoor
Жанр: Opera
Страна-производитель диска: Czech Republic
Год издания диска: 1998
Издатель (лейбл): Gramofonove zavody Lodenice
Номер по каталогу: L1 0384-2 602
Дата записи: 1987
Аудиокодек: APE
Тип рипа: image+.cue
Битрейт аудио: lossless
Продолжительность: 57'06+66'37
Источник: собственный рип
Наличие сканов в содержимом раздачи: да
Треклист:

CD1

Part I - Parting
In woods nearby Ravenswood Castle

1. Overture
2. Tu' sei turbato?
3. Cruda, funesta smania / La pietade in suo favore
In the park, near the fountain, at Ravenswood Castle
4. Ancor non giunse!
5. Regnava nel silenzio
6. Egli s'avanza
7. Sulla tomba che rinserra
Part II - Wedding
Halls of Lord Henry Ashton at Lammermoor Castle
8. Luciafra poco a te verrà
9. Appressati, Lucia
10. Il pallor, funesto, orrendo

CD2

1. Ebben? Di tua speranza
2. Ah! Cedi, cedi 0 piu sciagure
In Lord Arthur's Knights'Hall at Lammermoor Castie
3. Per te d'immenso giubilo
4. Per pocco fra le tenebre
5. Dov'è Lucia?
6. Chi mi frena in tal momento?
7. T' allontana, sciagurato
In Lord Henry Ashton's halls at Lammermoor Castle
8. D'immenso giubilo
9. Cessi Ah! Cessi quel contento
10. Eccola! 0 giusto cielo!
11. Ardon gl'incensi
12. Spargi d'amaro pianto
At the tombstone in Wolfenrage
13. Tombe degli avi miei
14. Fra poco a me ricovero
15. O meschina! ohfato orrendo
16. Tu che a Dio spiegasti l' ali
Исполнители:
Gaetano Donizetti - Lucia di Lammermoor
Lord Henry Ashton - Nicolae Herlea, baritone
Lucia, his sister - Silvia Voinea, soprano
Sir Edgar Ravenswood - Florin Georgescu, tenor
Lord Arthur Bucklaw - Gabriel Nastase, tenor
Norrnan, Captain of the Guard - Nicolae Bratu, tenor
Raymond, Lucy's teacher - Pompei Harasteanu, bass
Alisa, Lucy's companion - Lucia Cicoara, mezzosoprano
Choir of Romanian Opera Bucharest
Orchestra of Romanian Opera Bucharest
Constantin Petrovici

Лог создания рипа

CD1

Exact Audio Copy V1.0 beta 6 from 9. April 2015
EAC extraction logfile from 28. September 2015, 17:36
Herlea, Voinea, Georgescu - Romanian Opera Bucharest, Petrovici / Donizetti - Lucia di Lammermoor, Petrvici CD1
Used drive : TSSTcorpCDDVDW SE-208AB Adapter: 1 ID: 2
Read mode : Secure
Utilize accurate stream : Yes
Defeat audio cache : Yes
Make use of C2 pointers : No
Read offset correction : 6
Overread into Lead-In and Lead-Out : No
Fill up missing offset samples with silence : Yes
Delete leading and trailing silent blocks : No
Null samples used in CRC calculations : Yes
Used interface : Native Win32 interface for Win NT & 2000
Used output format : Monkey's Audio Lossless Encoder
Selected bitrate : High Lossless Compression
Quality : High
Add ID3 tag : Yes
Command line compressor : C:\Program Files (x86)\Exact Audio Copy\MAC\MAC.exe
TOC of the extracted CD
Track | Start | Length | Start sector | End sector
---------------------------------------------------------
1 | 0:00.00 | 4:45.08 | 0 | 21382
2 | 4:45.08 | 2:51.18 | 21383 | 34225
3 | 7:36.26 | 6:20.19 | 34226 | 62744
4 | 13:56.45 | 4:32.52 | 62745 | 83196
5 | 18:29.22 | 9:00.26 | 83197 | 123722
6 | 27:29.48 | 2:45.69 | 123723 | 136166
7 | 30:15.42 | 10:24.55 | 136167 | 183021
8 | 40:40.22 | 3:14.62 | 183022 | 197633
9 | 43:55.09 | 1:25.51 | 197634 | 204059
10 | 45:20.60 | 11:45.53 | 204060 | 256987
Range status and errors
Selected range
Filename D:\EAC\Donizetti - Lucia di Lammermoor, Petrvici CD1.wav
Peak level 100.0 %
Extraction speed 1.9 X
Range quality 100.0 %
Test CRC 6AD8C1EC
Copy CRC 6AD8C1EC
Copy OK
No errors occurred
AccurateRip summary
Track 1 accurately ripped (confidence 2) [53985D65] (AR v2)
Track 2 accurately ripped (confidence 2) [964FD5D9] (AR v2)
Track 3 accurately ripped (confidence 2) [D6A76055] (AR v2)
Track 4 accurately ripped (confidence 2) [059D7BC1] (AR v2)
Track 5 accurately ripped (confidence 2) [BF29CEC8] (AR v2)
Track 6 accurately ripped (confidence 2) [D5C131CA] (AR v2)
Track 7 accurately ripped (confidence 2) [13F52385] (AR v2)
Track 8 accurately ripped (confidence 2) [720A4F7D] (AR v2)
Track 9 accurately ripped (confidence 2) [868DF686] (AR v2)
Track 10 accurately ripped (confidence 2) [5044BE93] (AR v2)
All tracks accurately ripped
End of status report
---- CUETools DB Plugin V2.1.6
[CTDB TOCID: blziozQCiuRYEJjdGA0FOAUJE.s-] disk not present in database
Submit result: blziozQCiuRYEJjdGA0FOAUJE.s- has been uploaded
==== Log checksum 4384FC287FC2E116AAE5CC2AEEB826F2933154D60B798E17CDB584CF8C7A9A7D ====

CD2

Exact Audio Copy V1.0 beta 6 from 9. April 2015
EAC extraction logfile from 28. September 2015, 17:16
Herlea, Voinea, Georgescu - Romanian Opera Bucharest, Petrovici / Donizetti - Lucia di Lammermoor, Petrvici CD2
Used drive : TS8XDVDSTRANSCEND Adapter: 1 ID: 1
Read mode : Secure
Utilize accurate stream : Yes
Defeat audio cache : Yes
Make use of C2 pointers : No
Read offset correction : 6
Overread into Lead-In and Lead-Out : No
Fill up missing offset samples with silence : Yes
Delete leading and trailing silent blocks : No
Null samples used in CRC calculations : Yes
Used interface : Native Win32 interface for Win NT & 2000
Used output format : Monkey's Audio Lossless Encoder
Selected bitrate : High Lossless Compression
Quality : High
Add ID3 tag : Yes
Command line compressor : C:\Program Files (x86)\Exact Audio Copy\MAC\MAC.exe
TOC of the extracted CD
Track | Start | Length | Start sector | End sector
---------------------------------------------------------
1 | 0:00.32 | 2:35.08 | 32 | 11664
2 | 2:35.40 | 6:28.62 | 11665 | 40826
3 | 9:04.27 | 1:19.53 | 40827 | 46804
4 | 10:24.05 | 2:16.67 | 46805 | 57071
5 | 12:40.72 | 4:30.48 | 57072 | 77369
6 | 17:11.45 | 3:48.17 | 77370 | 94486
7 | 20:59.62 | 5:04.40 | 94487 | 117326
8 | 26:04.27 | 1:50.18 | 117327 | 125594
9 | 27:54.45 | 4:49.20 | 125595 | 147289
10 | 32:43.65 | 7:21.57 | 147290 | 180421
11 | 40:05.47 | 5:45.65 | 180422 | 206361
12 | 45:51.37 | 4:19.23 | 206362 | 225809
13 | 50:10.60 | 4:04.05 | 225810 | 244114
14 | 54:14.65 | 3:09.22 | 244115 | 258311
15 | 57:24.12 | 4:40.00 | 258312 | 279311
16 | 62:04.12 | 4:34.00 | 279312 | 299861
Range status and errors
Selected range
Filename D:\EAC\Donizetti - Lucia di Lammermoor, Petrvici CD2.wav
Peak level 100.0 %
Extraction speed 5.0 X
Range quality 100.0 %
Test CRC E8B33B78
Copy CRC E8B33B78
Copy OK
No errors occurred
AccurateRip summary
Track 1 accurately ripped (confidence 2) [82D05779] (AR v2)
Track 2 accurately ripped (confidence 2) [0A5FFF9F] (AR v2)
Track 3 accurately ripped (confidence 2) [91434188] (AR v2)
Track 4 accurately ripped (confidence 2) [92E370F6] (AR v2)
Track 5 accurately ripped (confidence 2) [6BBB3C0D] (AR v2)
Track 6 accurately ripped (confidence 2) [E026F8A2] (AR v2)
Track 7 accurately ripped (confidence 2) [F9BE42E9] (AR v2)
Track 8 accurately ripped (confidence 2) [D682A332] (AR v2)
Track 9 accurately ripped (confidence 2) [B41ADBB2] (AR v2)
Track 10 accurately ripped (confidence 2) [7D8FBACE] (AR v2)
Track 11 accurately ripped (confidence 2) [74430D93] (AR v2)
Track 12 accurately ripped (confidence 2) [C8989D8D] (AR v2)
Track 13 accurately ripped (confidence 2) [46B51D76] (AR v2)
Track 14 accurately ripped (confidence 2) [271CE9A1] (AR v2)
Track 15 accurately ripped (confidence 2) [3BE8E35C] (AR v2)
Track 16 accurately ripped (confidence 2) [4B3F3843] (AR v2)
All tracks accurately ripped
End of status report
---- CUETools DB Plugin V2.1.6
[CTDB TOCID: DytDoq_Aq8ZcWSWWltAuVH37Ejg-] disk not present in database
Submit result: unrecognized or virtual drive
==== Log checksum 2748463B573D1DC76D3EE189FEC3DCD61A0119DB55B9BFEC6290485044D1EC92 ====

Содержание индексной карты (.CUE)

CD1

REM GENRE Opera
REM DATE 1987
REM DISCID 840D620A
REM COMMENT "ExactAudioCopy v1.0b6"
CATALOG 0000000000000
PERFORMER "Herlea, Voinea, Georgescu - Romanian Opera Bucharest, Petrovici"
TITLE "Donizetti - Lucia di Lammermoor, Petrvici CD1"
FILE "Donizetti - Lucia di Lammermoor, Petrvici CD1.ape" WAVE
TRACK 01 AUDIO
TITLE "Part 1: Overture"
PERFORMER "Herlea, Voinea, Georgescu - Romanian Opera Bucharest, Petrovici"
INDEX 01 00:00:00
TRACK 02 AUDIO
TITLE "Tu' sei turbato? "
PERFORMER "Herlea, Voinea, Georgescu - Romanian Opera Bucharest, Petrovici"
INDEX 01 04:45:08
TRACK 03 AUDIO
TITLE "Cruda, funesta smania / La pietade in suo favore"
PERFORMER "Herlea, Voinea, Georgescu - Romanian Opera Bucharest, Petrovici"
INDEX 01 07:36:26
TRACK 04 AUDIO
TITLE "Ancor non giunse!"
PERFORMER "Herlea, Voinea, Georgescu - Romanian Opera Bucharest, Petrovici"
INDEX 01 13:56:45
TRACK 05 AUDIO
TITLE "Regnava nel silenzio"
PERFORMER "Herlea, Voinea, Georgescu - Romanian Opera Bucharest, Petrovici"
INDEX 01 18:29:22
TRACK 06 AUDIO
TITLE "Egli s'avanza"
PERFORMER "Herlea, Voinea, Georgescu - Romanian Opera Bucharest, Petrovici"
INDEX 01 27:29:48
TRACK 07 AUDIO
TITLE "Sulla tomba che rinserra"
PERFORMER "Herlea, Voinea, Georgescu - Romanian Opera Bucharest, Petrovici"
INDEX 01 30:15:42
TRACK 08 AUDIO
TITLE "Part 2: Lucia fra poco a te verrà"
PERFORMER "Herlea, Voinea, Georgescu - Romanian Opera Bucharest, Petrovici"
INDEX 01 40:40:22
TRACK 09 AUDIO
TITLE "Appressati, Lucia"
PERFORMER "Herlea, Voinea, Georgescu - Romanian Opera Bucharest, Petrovici"
INDEX 01 43:55:09
TRACK 10 AUDIO
TITLE "Il pallor, funesto, orrendo"
PERFORMER "Herlea, Voinea, Georgescu - Romanian Opera Bucharest, Petrovici"
INDEX 01 45:20:60

CD2

REM GENRE Opera
REM DATE 1987
REM DISCID DE0F9E10
REM COMMENT "ExactAudioCopy v1.0b6"
CATALOG 0000000000000
PERFORMER "Herlea, Voinea, Georgescu - Romanian Opera Bucharest, Petrovici"
TITLE "Donizetti - Lucia di Lammermoor, Petrvici CD2"
FILE "Donizetti - Lucia di Lammermoor, Petrvici CD2.ape" WAVE
TRACK 01 AUDIO
TITLE "Part 2: Ebben? ... Di tua speranza"
PERFORMER "Herlea, Voinea, Georgescu - Romanian Opera Bucharest, Petrovici"
INDEX 00 00:00:00
INDEX 01 00:00:32
TRACK 02 AUDIO
TITLE "Ah! Cedi, cedi, o piu sciagure"
PERFORMER "Herlea, Voinea, Georgescu - Romanian Opera Bucharest, Petrovici"
INDEX 01 02:35:40
TRACK 03 AUDIO
TITLE "Per te d'imenso giubilo"
PERFORMER "Herlea, Voinea, Georgescu - Romanian Opera Bucharest, Petrovici"
INDEX 00 09:02:58
INDEX 01 09:04:27
TRACK 04 AUDIO
TITLE "Per poco fra le tenebre"
PERFORMER "Herlea, Voinea, Georgescu - Romanian Opera Bucharest, Petrovici"
INDEX 01 10:24:05
TRACK 05 AUDIO
TITLE "Dov'è Lucia?"
PERFORMER "Herlea, Voinea, Georgescu - Romanian Opera Bucharest, Petrovici"
INDEX 01 12:40:72
TRACK 06 AUDIO
TITLE "Chi mi frena in tal momento?"
PERFORMER "Herlea, Voinea, Georgescu - Romanian Opera Bucharest, Petrovici"
INDEX 01 17:11:45
TRACK 07 AUDIO
TITLE "T'allontana, sciagurato"
PERFORMER "Herlea, Voinea, Georgescu - Romanian Opera Bucharest, Petrovici"
INDEX 01 20:59:62
TRACK 08 AUDIO
TITLE "D'immenso giubilo"
PERFORMER "Herlea, Voinea, Georgescu - Romanian Opera Bucharest, Petrovici"
INDEX 00 26:00:51
INDEX 01 26:04:27
TRACK 09 AUDIO
TITLE "Cessi ...ah, cessi quel contento"
PERFORMER "Herlea, Voinea, Georgescu - Romanian Opera Bucharest, Petrovici"
INDEX 01 27:54:45
TRACK 10 AUDIO
TITLE "Eccola! O giusto cielo!"
PERFORMER "Herlea, Voinea, Georgescu - Romanian Opera Bucharest, Petrovici"
INDEX 01 32:43:65
TRACK 11 AUDIO
TITLE "Ardon gl'incensi"
PERFORMER "Herlea, Voinea, Georgescu - Romanian Opera Bucharest, Petrovici"
INDEX 01 40:05:47
TRACK 12 AUDIO
TITLE "Spargi d'amoro pianto"
PERFORMER "Herlea, Voinea, Georgescu - Romanian Opera Bucharest, Petrovici"
INDEX 01 45:51:37
TRACK 13 AUDIO
TITLE "Tombe degli avi miei"
PERFORMER "Herlea, Voinea, Georgescu - Romanian Opera Bucharest, Petrovici"
INDEX 00 50:06:61
INDEX 01 50:10:60
TRACK 14 AUDIO
TITLE "Fra poco a me ricovero"
PERFORMER "Herlea, Voinea, Georgescu - Romanian Opera Bucharest, Petrovici"
INDEX 01 54:14:65
TRACK 15 AUDIO
TITLE "Oh meschina!! oh fato orrendo"
PERFORMER "Herlea, Voinea, Georgescu - Romanian Opera Bucharest, Petrovici"
INDEX 01 57:24:12
TRACK 16 AUDIO
TITLE "Tu che a Dio spiegasti l'ali"
PERFORMER "Herlea, Voinea, Georgescu - Romanian Opera Bucharest, Petrovici"
INDEX 01 62:04:12



Показать сообщения:    

Текущее время: 03-Дек 07:31

Часовой пояс: UTC + 3


Вы не можете начинать темы
Вы не можете отвечать на сообщения
Вы не можете редактировать свои сообщения
Вы не можете удалять свои сообщения
Вы не можете голосовать в опросах
Вы не можете прикреплять файлы к сообщениям
Вы не можете скачивать файлы