Кафе «Донс Плам» / Don's Plum (Р.Д. Робб / R.D. Robb) [2000, США, Дания, Швеция, драма, DVDRip] MVO + Original Eng


Статистика раздачи [Обновить пиров]
Размер:  1.46 GB   |    Зарегистрирован:  8 месяцев 18 дней   |    Скачан:  0 раз

Полного источника не было: Никогда

 
   
 
 
 

[Цитировать]

Кафе «Донс Плам»/ Don's Plum- Страна: США, Дания, Швеция
Жанр: драма
Год выпуска: 2000
Продолжительность: 01:26:18-Перевод: Профессиональный (многоголосый закадровый)
Cубтитры: нет
Оригинальная аудиодорожка: английский-Режиссер: Р.Д. Робб / R.D. Robb
В ролях: Эмбер Бенсон, Скотт Блум, Кевин Коннолли, Леонардо ДиКаприо, Дженни Льюис, Тоби Магуайр, Хизер МакКомб, Медоу Систо, Марисса Рибизи, Джереми Систо-Описание: Четверо юных шалопаев по субботам тусуются в любимой кафешке «Донс Плам» со своими подружками.
Ночь напролет они ведут обычный треп за чашкой кофе. Говорят обо всем: о сексе, о геях, натуралах, бисексуалах, о хорошем сексе и плохом сексе.
Говорят о жизни, о трудных и легких временах, о самоубийстве и приставаниях, о дружбе и музыке; они смеются и делятся воспоминаниями. Они играют в игру «Я никогда не делал этого» и «Пошел в жопу!», рассказывают друг другу самое сокровенное о себе, самое наболевшее.
Ведь только они сами могут понять друг друга! Они будут ругаться, драться и орать друг на друга, но с первыми лучами солнца каждый из героев поймет, что превыше всего — их юношеская дружба…
-Доп. информация: Тем кто любит этакий жанр кинематографа, где ведут неспешные разговоры и слушают разную болтовню.-Сэмпл: http://multi-up.com/1069762
Качество видео: DVDRip
Формат видео: AVI-Видео: 704x384 (1.85:1), 25 fps, XviD build 67 ~2026 kbps avg, 0.300 bit/pixel
Аудио: 48 kHz, AC3 Dolby Digital, 2/1 (L,R,LFE) ch, ~192.00 kbps avg MVO
Аудио 2: 48 kHz, AC3 Dolby Digital, 2/0 (L,R) ch, ~192.00 kbps avg eng

MediaInfo

Общее
Полное имя : D:\Don's Plum\Кафе «Донс Плам» (2000) By Crusstill+.avi
Формат : AVI
Формат/Информация : Audio Video Interleave
Размер файла : 1,46 Гбайт
Продолжительность : 1 ч. 26 м.
Общий поток : 2424 Кбит/сек
Программа кодирования : VirtualDubMod 1.5.4.1 (build 2066/release)
Библиотека кодирования : VirtualDubMod build 2066/release
Видео
Идентификатор : 0
Формат : MPEG-4 Visual
Профиль формата : Advanced Simple@L5
Параметр BVOP формата : 1
Параметр QPel формата : Нет
Параметр GMC формата : Без точки перехода
Параметр матрицы формата : Выборочная
Идентификатор кодека : XVID
Идентификатор кодека/Подсказка : XviD
Продолжительность : 1 ч. 26 м.
Битрейт : 2026 Кбит/сек
Ширина : 704 пикселя
Высота : 384 пикселя
Соотношение сторон : 1,85:1
Частота кадров : 25,000 кадров/сек
Цветовое пространство : YUV
Субдискретизация насыщенности : 4:2:0
Битовая глубина : 8 бит
Тип развёртки : Прогрессивная
Метод сжатия : С потерями
Бит/(Пиксели*Кадры) : 0.300
Размер потока : 1,22 Гбайт (84%)
Библиотека кодирования : XviD 67
Аудио #1
Идентификатор : 1
Формат : AC-3
Формат/Информация : Audio Coding 3
Расширение режима : CM (complete main)
Параметр Endianness формата : Big
Идентификатор кодека : 2000
Продолжительность : 1 ч. 26 м.
Вид битрейта : Постоянный
Битрейт : 192 Кбит/сек
Каналы : 2 канала
Channel(s)_Original : 3 канала
Расположение каналов : Front: L R, LFE
Частота : 48,0 КГц
Метод сжатия : С потерями
Размер потока : 119 Мбайт (8%)
Выравнивание : Разделение по промежуткам
Продолжительность промежутка : 40 мс. (1,00 видеокадр)
Время предзагрузки промежутка : 500 мс.
Аудио #2
Идентификатор : 2
Формат : AC-3
Формат/Информация : Audio Coding 3
Расширение режима : CM (complete main)
Параметр Endianness формата : Big
Идентификатор кодека : 2000
Продолжительность : 1 ч. 25 м.
Вид битрейта : Постоянный
Битрейт : 192 Кбит/сек
Каналы : 2 канала
Расположение каналов : Front: L R
Частота : 48,0 КГц
Метод сжатия : С потерями
Размер потока : 118 Мбайт (8%)
Выравнивание : Разделение по промежуткам
Продолжительность промежутка : 40 мс. (1,00 видеокадр)
Время предзагрузки промежутка : 500 мс.

Скриншоты

[teatrix.ru].t22405.torrent 
Торрент: Зарегистрирован [ 2016-03-20 12:35 ] · 5BC656AB7C15D1F275DA7A659CB31A22FB32660B

Скачать .torrent

Скачать

15 KB

Статус: проверено
Скачан: 0 раз
Размер: 1.46 GB
terms.php



Быстрый ответ

Имя:

      
Для отправки сообщений необходимо включить JavaScript
Показать сообщения:    

Текущее время: 08-Дек 03:11

Часовой пояс: UTC + 3


Вы можете начинать темы
Вы можете отвечать на сообщения
Вы не можете редактировать свои сообщения
Вы не можете удалять свои сообщения
Вы не можете голосовать в опросах
Вы не можете прикреплять файлы к сообщениям
Вы можете скачивать файлы