[TR24][SM][OF] Чайковский / Tchaikovsky / Tschaikowsky - Klaviertrio · Piano Trio - Itzhak Perlman, Vladimir Ashkenazy/Ашкенази, Lynn Harrell - 1981 (Classical)


Статистика раздачи [Обновить пиров]
Размер:  905 MB   |    Зарегистрирован:  8 месяцев 19 дней   |    Скачан:  0 раз

Полного источника не было: Никогда

 
   
 
 
 

[Цитировать]

·
·
·

Пётр Ильич Чайковский
(1840-1893)
Жанр: Chamber Music
Носитель: Official Digital Download
Год издания диска: Ⓟ 1980, 2011 EMI Records Ltd.
Год переиздания диска: © 2012 EMI Records Ltd.
Номер по каталогу: v/n
Продолжительность: 49:16
Наличие сканов в содержимом раздачи: cover art
Контейнер: FLAC (*.flac)
Разрядность: 24/96
Количество каналов: 2.0
Формат: tracks
Источник: HDtracks
Pелизер: WEB (thanks to the original customer)

Треклист

Piano Trio in A Minor Op. 50
01 Pezzo elegiaco 18:31
02 Tema: Andante con moto 01:06
03 Variation I : Cantabile 00:58
04 Variation II : Più mosso 00:36
05 Variation III : Allegro moderato 00:58
06 Variation IV : L'istesso tempo 01:17
07 Variation V : L'istesso tempo 00:44
08 Variation VI : Tempo di Valse 02:35
09 Variation VII : Allegro moderato 01:19
10 Variation VIII : Fuga: Allegro moderato 02:30
11 Variation IX : Andante febile, ma non tanto 03:11
12 Variation X : Tempo di Mazurka 01:46
13 Variation XI : Moderato 02:19
14 Final Variation and Coda : Allegro risoluto e con fuoco - Andante con moto - Lugubre: L'istesso tempo 11:26

Исполнители

Vladimir Ashkenazy piano
Itzhak Perlman violin
Lynn Harrell cello
Won the GRAMMY® for Best Chamber Music Performance

Dynamic Range Meter

foobar2000 1.3.8 / Dynamic Range Meter 1.1.1
log date: 2015-09-29 02:39:28
--------------------------------------------------------------------------------
Analyzed: Itzhak Perlman, Lynn Harrell, Vladimir Ashkenazy / Tchaikovsky: Piano Trio
--------------------------------------------------------------------------------
DR Peak RMS Duration Track
--------------------------------------------------------------------------------
DR14 -0.11 dB -19.34 dB 18:32 01-Piano Trio in A Minor, Op.50: Pezzo elegiaco
DR13 -7.36 dB -25.64 dB 1:06 02-Piano Trio in A Minor, Op.50: Tema: Andante con moto
DR11 -8.08 dB -23.56 dB 0:58 03-Piano Trio in A Minor, Op.50: Variation I: Cantabile
DR12 -4.70 dB -19.15 dB 0:37 04-Piano Trio in A Minor, Op.50: Variation II: Più mosso
DR14 -4.97 dB -23.62 dB 0:58 05-Piano Trio in A Minor, Op.50: Variation III: Allegro moderato
DR11 -5.91 dB -20.53 dB 1:17 06-Piano Trio in A Minor, Op.50: Variation IV: L'istesso tempo
DR9 -12.56 dB -29.86 dB 0:44 07-Piano Trio in A Minor, Op.50: Variation V: L'istesso tempo
DR13 -2.34 dB -20.38 dB 2:36 08-Piano Trio in A Minor, Op.50: Variation VI: Tempo di Valse
DR12 -0.86 dB -14.55 dB 1:20 09-Piano Trio in A Minor, Op.50: Variation VII: Allegro moderato
DR12 -3.27 dB -18.20 dB 2:31 10-Piano Trio in A Minor, Op.50: Variation VIII: Fuga: Allegro moderato
DR13 -8.77 dB -26.72 dB 3:12 11-Piano Trio in A Minor, Op.50: Variation IX: Andante febile, ma non tanto
DR14 -5.27 dB -23.84 dB 1:46 12-Piano Trio in A Minor, Op.50: Variation X: Tempo di Mazurka
DR14 -4.25 dB -25.64 dB 2:19 13-Piano Trio in A Minor, Op.50: Variation XI: Moderato
DR12 -0.10 dB -16.07 dB 11:26 14-Piano Trio in A Minor, Op.50: Final Variation and Coda: Allegro risoluto e con fuoco - Andante con moto - Lugubre: L'istesso tempo
--------------------------------------------------------------------------------
Number of tracks: 14
Official DR value: DR12
Samplerate: 96000 Hz
Channels: 2
Bits per sample: 24
Bitrate: 2632 kbps
Codec: FLAC
================================================================================
[teatrix.ru].t22406.torrent 
Торрент: Зарегистрирован [ 2016-03-20 12:35 ] · E4E415D36157CA4B1DF45581F6E7184E5377B887

Скачать .torrent

Скачать

20 KB

Статус: проверено
Скачан: 0 раз
Размер: 905 MB
terms.php



Быстрый ответ

Имя:

      
Для отправки сообщений необходимо включить JavaScript
Показать сообщения:    

Текущее время: 09-Дек 06:57

Часовой пояс: UTC + 3


Вы можете начинать темы
Вы можете отвечать на сообщения
Вы не можете редактировать свои сообщения
Вы не можете удалять свои сообщения
Вы не можете голосовать в опросах
Вы не можете прикреплять файлы к сообщениям
Вы можете скачивать файлы