(Opera) Mercadante - Orazi E Curiazi (Miricioiu, Michaels-Moore, Jerome, Rhys-Davies - Geofrey Mitchell Choir - Philharmonia Orchestra, Parry) - 1995, APE (image+.cue) lossless


 

[Цитировать]

Saverio Mercadante - Orazi E Curiazi
Жанр: Opera
Страна-производитель диска: UK
Год издания диска: 1995
Издатель (лейбл): Opera Rara
Номер по каталогу: ORC 12
Дата записи: 1995
Аудиокодек: APE
Тип рипа: image+.cue
Битрейт аудио: lossless
Продолжительность: 68'00+55'30+53'40
Источник: скачано с
Наличие сканов в содержимом раздачи: да
Треклист:

CD1

1. Act One - Preludio e coro - La spada formidabile
2. Aria Camilla - Qual prece o voto
3. Di quai soavi palpiti
4. Duet Camilla & Curiazio - Camilla
5. Talor solingo e tacito
6. Ah! non so dir qual giubilo
7. Aria Orazio - Ora fatal!
8. Roma intera la vittoria
9. Finale Primo - Del terzo cielo (chorus)
10. Ebben
11. Ahi! dove un Olimpo
12. Addio!

CD2

1. Act Two - Duet Orazio & Curiazio - Addio, sacri penati
2. Se d'ogni affetto umano
3. In fera pugna stanco
4. Ardente amor di gloria
5. Giuramento - Pria di pugnar si sciolgano
6. Non di trombe
7. Scena ed aria Camilla - Ecco il delubro!
8. La mia prece
9. O voce di fato
10. Arde già l'atroce guerra!

CD3

1. Act Three - Aria Curiazio - All'occaso volgea
2. Ah! come a lei mostrarmi
3. Non l'odi¿ Vil mi chiama
4. Aria Vecchio Orazio - Sull'alto delle mura
5. Oh! se morendo
6. Piango...ma queste lagrime
7. Finale terzo - Salve, guerrier magnanimo
8. Dammi, se a queste lagrime
9. Ah! su lei tremendo foco
10. Sento...l'estremo...anelito!
11. Appendix - Scena ed aria Camilla - Quale orrendo vel mi cinge
12. Ah no, l'inique spade"
Исполнители:
Saverio Mercadante - Orazi E Curiazi
Tragedia lirica in three acts
Libretto by Salvadore Cammarano based on Corneille’s tragedy Les Horaces
Camilla - Nelly Miricioiu, soprano
Orazio - Anthony Michaels-Moore, baritone
Curazio - Marcus Jerome, tenor
Vecchio - Alistair Miles, bass
Sabina - Jennifer Rhys-Davies, mezzo-soprano
Geofrey Mitchell Choir
Philharmonia Orchestra
David Parry

Лог создания рипа

CD1

Exact Audio Copy V1.0 beta 6 from 9. April 2015
EAC extraction logfile from 29. September 2015, 20:14
Miricioiu_Michaels-Moore_Jerome_Mitchell_Choir_Philh_ Orch_Parry / Mercadante - Orazi e Curiazi, Parry CD1
Used drive : HL-DT-STDVDRAM GH22NS50 Adapter: 1 ID: 0
Read mode : Secure
Utilize accurate stream : Yes
Defeat audio cache : Yes
Make use of C2 pointers : No
Read offset correction : 667
Overread into Lead-In and Lead-Out : No
Fill up missing offset samples with silence : Yes
Delete leading and trailing silent blocks : No
Null samples used in CRC calculations : Yes
Used interface : Native Win32 interface for Win NT & 2000
Used output format : Monkey's Audio Lossless Encoder
Selected bitrate : High Lossless Compression
Quality : High
Add ID3 tag : Yes
Command line compressor : C:\Program Files (x86)\Exact Audio Copy\MAC\MAC.exe
TOC of the extracted CD
Track | Start | Length | Start sector | End sector
---------------------------------------------------------
1 | 0:00.00 | 7:57.60 | 0 | 35834
2 | 7:57.60 | 6:50.32 | 35835 | 66616
3 | 14:48.17 | 3:28.53 | 66617 | 82269
4 | 18:16.70 | 2:29.37 | 82270 | 93481
5 | 20:46.32 | 5:33.38 | 93482 | 118494
6 | 26:19.70 | 3:15.45 | 118495 | 133164
7 | 29:35.40 | 9:32.40 | 133165 | 176104
8 | 39:08.05 | 3:54.15 | 176105 | 193669
9 | 43:02.20 | 5:49.14 | 193670 | 219858
10 | 48:51.34 | 4:39.71 | 219859 | 240854
11 | 53:31.30 | 8:38.00 | 240855 | 279704
12 | 62:09.30 | 5:50.45 | 279705 | 305999
Range status and errors
Selected range
Filename D:\EAC\Mercadante - Orazi e Curiazi, Parry CD1.wav
Peak level 100.0 %
Extraction speed 2.0 X
Range quality 99.9 %
Test CRC 747DCA86
Copy CRC 747DCA86
Copy OK
No errors occurred
AccurateRip summary
Track 1 cannot be verified as accurate (confidence 2) [D98AA6FA], AccurateRip returned [D7E81EE4] (AR v2)
Track 2 cannot be verified as accurate (confidence 2) [78476AA6], AccurateRip returned [7EA6DC0C] (AR v2)
Track 3 cannot be verified as accurate (confidence 2) [A7213E24], AccurateRip returned [FEB3508D] (AR v2)
Track 4 cannot be verified as accurate (confidence 2) [EC6CFA6E], AccurateRip returned [EB9FD048] (AR v2)
Track 5 cannot be verified as accurate (confidence 2) [7A5ACB25], AccurateRip returned [404D32E3] (AR v2)
Track 6 cannot be verified as accurate (confidence 2) [A1B7DDC6], AccurateRip returned [D3288B3F] (AR v2)
Track 7 cannot be verified as accurate (confidence 2) [7C150921], AccurateRip returned [1C036507] (AR v2)
Track 8 cannot be verified as accurate (confidence 2) [01F92E4E], AccurateRip returned [8DAD1BB2] (AR v2)
Track 9 cannot be verified as accurate (confidence 2) [B6BE3C4E], AccurateRip returned [C909E04E] (AR v2)
Track 10 cannot be verified as accurate (confidence 2) [1571C5F4], AccurateRip returned [37044429] (AR v2)
Track 11 cannot be verified as accurate (confidence 2) [09B21DC1], AccurateRip returned [6B954C2A] (AR v2)
Track 12 cannot be verified as accurate (confidence 2) [2C28BDB4], AccurateRip returned [D4759D18] (AR v2)
No tracks could be verified as accurate
You may have a different pressing from the one(s) in the database
End of status report
---- CUETools DB Plugin V2.1.6
[CTDB TOCID: 0O00Of9nWtWXRNJK.ZK_MQh.hIc-] found
Submit result: 0O00Of9nWtWXRNJK.ZK_MQh.hIc- has been confirmed
Track | CTDB Status
1 | (1/1) Accurately ripped
2 | (1/1) Accurately ripped
3 | (1/1) Accurately ripped
4 | (1/1) Accurately ripped
5 | (1/1) Accurately ripped
6 | (1/1) Accurately ripped
7 | (1/1) Accurately ripped
8 | (1/1) Accurately ripped
9 | (1/1) Accurately ripped
10 | (1/1) Accurately ripped
11 | (1/1) Accurately ripped
12 | (1/1) Accurately ripped
==== Log checksum 40AD4B37C781C4F3F9C469C7307413F317E61D90E3394DEDE08C04477B90576B ====

CD2

Exact Audio Copy V1.0 beta 6 from 9. April 2015
EAC extraction logfile from 29. September 2015, 19:50
Miricioiu_Michaels-Moore_Jerome_Mitchell_Choir_Philh_ Orch_Parry / Mercadante - Orazi e Curiazi, Parry CD2
Used drive : TSSTcorpCDDVDW SE-208AB Adapter: 1 ID: 2
Read mode : Secure
Utilize accurate stream : Yes
Defeat audio cache : Yes
Make use of C2 pointers : No
Read offset correction : 6
Overread into Lead-In and Lead-Out : No
Fill up missing offset samples with silence : Yes
Delete leading and trailing silent blocks : No
Null samples used in CRC calculations : Yes
Used interface : Native Win32 interface for Win NT & 2000
Used output format : Monkey's Audio Lossless Encoder
Selected bitrate : High Lossless Compression
Quality : High
Add ID3 tag : Yes
Command line compressor : C:\Program Files (x86)\Exact Audio Copy\MAC\MAC.exe
TOC of the extracted CD
Track | Start | Length | Start sector | End sector
---------------------------------------------------------
1 | 0:00.00 | 3:05.02 | 0 | 13876
2 | 3:05.02 | 2:37.48 | 13877 | 25699
3 | 5:42.50 | 4:26.14 | 25700 | 45663
4 | 10:08.64 | 2:32.38 | 45664 | 57101
5 | 12:41.27 | 13:06.20 | 57102 | 116071
6 | 25:47.47 | 4:06.13 | 116072 | 134534
7 | 29:53.60 | 7:22.35 | 134535 | 167719
8 | 37:16.20 | 4:48.17 | 167720 | 189336
9 | 42:04.37 | 8:06.40 | 189337 | 225826
10 | 50:11.02 | 5:14.73 | 225827 | 249449
Range status and errors
Selected range
Filename D:\EAC\Mercadante - Orazi e Curiazi, Parry CD2.wav
Peak level 100.0 %
Extraction speed 2.0 X
Range quality 99.9 %
Test CRC A3AECB1A
Copy CRC A3AECB1A
Copy OK
No errors occurred
AccurateRip summary
Track 1 cannot be verified as accurate (confidence 3) [09A098B8], AccurateRip returned [C7546DAE] (AR v2)
Track 2 cannot be verified as accurate (confidence 3) [01A89530], AccurateRip returned [D3285E50] (AR v2)
Track 3 cannot be verified as accurate (confidence 3) [8740A01E], AccurateRip returned [936DED2F] (AR v2)
Track 4 cannot be verified as accurate (confidence 3) [7F3520D2], AccurateRip returned [640806C7] (AR v2)
Track 5 cannot be verified as accurate (confidence 3) [E5A7F85D], AccurateRip returned [71870934] (AR v2)
Track 6 cannot be verified as accurate (confidence 3) [E02EC4EC], AccurateRip returned [C345CA27] (AR v2)
Track 7 cannot be verified as accurate (confidence 3) [9480494B], AccurateRip returned [DC50D43A] (AR v2)
Track 8 cannot be verified as accurate (confidence 3) [46BB9702], AccurateRip returned [4FE6DE06] (AR v2)
Track 9 cannot be verified as accurate (confidence 3) [510A936E], AccurateRip returned [45EDB83E] (AR v2)
Track 10 cannot be verified as accurate (confidence 3) [4460A56D], AccurateRip returned [66668EA1] (AR v2)
No tracks could be verified as accurate
You may have a different pressing from the one(s) in the database
End of status report
---- CUETools DB Plugin V2.1.6
[CTDB TOCID: pCXTLqjn6sukCSeh8DAMTLPPaHU-] found
Submit result: pCXTLqjn6sukCSeh8DAMTLPPaHU- has been confirmed
Track | CTDB Status
1 | (1/1) Accurately ripped
2 | (1/1) Accurately ripped
3 | (1/1) Accurately ripped
4 | (1/1) Accurately ripped
5 | (1/1) Accurately ripped
6 | (1/1) Accurately ripped
7 | (1/1) Accurately ripped
8 | (1/1) Accurately ripped
9 | (1/1) Accurately ripped
10 | (1/1) Accurately ripped
==== Log checksum A3BBB4DB94A5FFD4C94988D6C6B61C73EA21B28F2ABCC68C7D72C2491E818B1A ====

CD3

Exact Audio Copy V1.0 beta 6 from 9. April 2015
EAC extraction logfile from 29. September 2015, 19:29
Miricioiu_Michaels-Moore_Jerome_Mitchell_Choir_Philh_ Orch_Parry / Mercadante - Orazi e Curiazi, Parry CD3
Used drive : TS8XDVDSTRANSCEND Adapter: 1 ID: 1
Read mode : Secure
Utilize accurate stream : Yes
Defeat audio cache : Yes
Make use of C2 pointers : No
Read offset correction : 6
Overread into Lead-In and Lead-Out : No
Fill up missing offset samples with silence : Yes
Delete leading and trailing silent blocks : No
Null samples used in CRC calculations : Yes
Used interface : Native Win32 interface for Win NT & 2000
Used output format : Monkey's Audio Lossless Encoder
Selected bitrate : High Lossless Compression
Quality : High
Add ID3 tag : Yes
Command line compressor : C:\Program Files (x86)\Exact Audio Copy\MAC\MAC.exe
TOC of the extracted CD
Track | Start | Length | Start sector | End sector
---------------------------------------------------------
1 | 0:00.00 | 6:07.67 | 0 | 27591
2 | 6:07.67 | 4:50.13 | 27592 | 49354
3 | 10:58.05 | 3:53.70 | 49355 | 66899
4 | 14:52.00 | 4:35.54 | 66900 | 87578
5 | 19:27.54 | 5:02.48 | 87579 | 110276
6 | 24:30.27 | 2:31.48 | 110277 | 121649
7 | 27:02.00 | 6:20.27 | 121650 | 150176
8 | 33:22.27 | 5:42.28 | 150177 | 175854
9 | 39:04.55 | 3:54.12 | 175855 | 193416
10 | 42:58.67 | 4:53.23 | 193417 | 215414
11 | 47:52.15 | 2:13.30 | 215415 | 225419
12 | 50:05.45 | 3:38.30 | 225420 | 241799
Range status and errors
Selected range
Filename D:\EAC\Mercadante - Orazi e Curiazi, Parry CD3.wav
Peak level 100.0 %
Extraction speed 4.8 X
Range quality 100.0 %
Test CRC CDF9EEB6
Copy CRC CDF9EEB6
Copy OK
No errors occurred
AccurateRip summary
Track 1 cannot be verified as accurate (confidence 3) [A672E2F3], AccurateRip returned [8ED924B6] (AR v2)
Track 2 cannot be verified as accurate (confidence 3) [E30667B7], AccurateRip returned [BDD8A7DD] (AR v2)
Track 3 cannot be verified as accurate (confidence 3) [FB34FF4B], AccurateRip returned [2D2107A2] (AR v2)
Track 4 cannot be verified as accurate (confidence 3) [7BD58E4C], AccurateRip returned [C509CAF4] (AR v2)
Track 5 cannot be verified as accurate (confidence 3) [3A9F8CF6], AccurateRip returned [17EE7971] (AR v2)
Track 6 cannot be verified as accurate (confidence 3) [A2A93F5F], AccurateRip returned [0B3ECB5C] (AR v2)
Track 7 cannot be verified as accurate (confidence 3) [8685C9FB], AccurateRip returned [90E9B64B] (AR v2)
Track 8 cannot be verified as accurate (confidence 3) [E2529559], AccurateRip returned [B3639330] (AR v2)
Track 9 cannot be verified as accurate (confidence 3) [CE3B28D2], AccurateRip returned [B073976C] (AR v2)
Track 10 cannot be verified as accurate (confidence 3) [739AE047], AccurateRip returned [E51F45B5] (AR v2)
Track 11 cannot be verified as accurate (confidence 3) [AFB138C4], AccurateRip returned [8CC75723] (AR v2)
Track 12 cannot be verified as accurate (confidence 3) [D8E131B5], AccurateRip returned [84481564] (AR v2)
No tracks could be verified as accurate
You may have a different pressing from the one(s) in the database
End of status report
---- CUETools DB Plugin V2.1.6
[CTDB TOCID: zB12kRVTZBbYIbPaZVgY_crQ89Q-] found
Submit result: unrecognized or virtual drive
Track | CTDB Status
1 | (1/1) Accurately ripped
2 | (1/1) Accurately ripped
3 | (1/1) Accurately ripped
4 | (1/1) Accurately ripped
5 | (1/1) Accurately ripped
6 | (1/1) Accurately ripped
7 | (1/1) Accurately ripped
8 | (1/1) Accurately ripped
9 | (1/1) Accurately ripped
10 | (1/1) Accurately ripped
11 | (1/1) Accurately ripped
12 | (1/1) Accurately ripped
==== Log checksum 95258849FD2F69F6BEFB775D6B3579222B29C59B21DF8A92AB9A9A6BFEA9B51E ====

Содержание индексной карты (.CUE)

CD1

REM GENRE Opera
REM DATE 1995
REM DISCID B20FF00C
REM COMMENT "ExactAudioCopy v1.0b6"
PERFORMER "Miricioiu_Michaels-Moore_Jerome_Mitchell_Choir_Philh_ Orch_Parry"
TITLE "Mercadante - Orazi e Curiazi, Parry CD1"
FILE "Mercadante - Orazi e Curiazi, Parry CD1.ape" WAVE
TRACK 01 AUDIO
TITLE "Act One - Preludio e coro - La spada formidabile"
PERFORMER "Miricioiu_Michaels-Moore_Jerome_Mitchell_Choir_Philh_ Orch_Parry"
INDEX 01 00:00:00
TRACK 02 AUDIO
TITLE "Aria Camilla - Qual prece o voto"
PERFORMER "Miricioiu_Michaels-Moore_Jerome_Mitchell_Choir_Philh_ Orch_Parry"
INDEX 01 07:57:60
TRACK 03 AUDIO
TITLE "Di quai soavi palpiti"
PERFORMER "Miricioiu_Michaels-Moore_Jerome_Mitchell_Choir_Philh_ Orch_Parry"
INDEX 01 14:48:17
TRACK 04 AUDIO
TITLE "Duet Camilla & Curiazio - Camilla¿.."
PERFORMER "Miricioiu_Michaels-Moore_Jerome_Mitchell_Choir_Philh_ Orch_Parry"
INDEX 01 18:16:70
TRACK 05 AUDIO
TITLE "Talor solingo e tacito"
PERFORMER "Miricioiu_Michaels-Moore_Jerome_Mitchell_Choir_Philh_ Orch_Parry"
INDEX 01 20:46:32
TRACK 06 AUDIO
TITLE "Ah! non so dir qual giubilo"
PERFORMER "Miricioiu_Michaels-Moore_Jerome_Mitchell_Choir_Philh_ Orch_Parry"
INDEX 01 26:19:70
TRACK 07 AUDIO
TITLE "Aria Orazio - Ora fatal!"
PERFORMER "Miricioiu_Michaels-Moore_Jerome_Mitchell_Choir_Philh_ Orch_Parry"
INDEX 01 29:35:40
TRACK 08 AUDIO
TITLE "Roma intera la vittoria"
PERFORMER "Miricioiu_Michaels-Moore_Jerome_Mitchell_Choir_Philh_ Orch_Parry"
INDEX 01 39:08:05
TRACK 09 AUDIO
TITLE "Finale Primo - Del terzo cielo (chorus)"
PERFORMER "Miricioiu_Michaels-Moore_Jerome_Mitchell_Choir_Philh_ Orch_Parry"
INDEX 01 43:02:20
TRACK 10 AUDIO
TITLE "Ebben¿.."
PERFORMER "Miricioiu_Michaels-Moore_Jerome_Mitchell_Choir_Philh_ Orch_Parry"
INDEX 01 48:51:34
TRACK 11 AUDIO
TITLE "Ahi! dove un Olimpo"
PERFORMER "Miricioiu_Michaels-Moore_Jerome_Mitchell_Choir_Philh_ Orch_Parry"
INDEX 01 53:31:30
TRACK 12 AUDIO
TITLE "Addio!"
PERFORMER "Miricioiu_Michaels-Moore_Jerome_Mitchell_Choir_Philh_ Orch_Parry"
INDEX 01 62:09:30

CD2

REM GENRE Opera
REM DATE 1995
REM DISCID 820CFE0A
REM COMMENT "ExactAudioCopy v1.0b6"
PERFORMER "Miricioiu_Michaels-Moore_Jerome_Mitchell_Choir_Philh_ Orch_Parry"
TITLE "Mercadante - Orazi e Curiazi, Parry CD2"
FILE "Mercadante - Orazi e Curiazi, Parry CD2.ape" WAVE
TRACK 01 AUDIO
TITLE "Act Two - Duet Orazio & Curiazio - Addio, sacri penati"
PERFORMER "Miricioiu_Michaels-Moore_Jerome_Mitchell_Choir_Philh_ Orch_Parry"
INDEX 01 00:00:00
TRACK 02 AUDIO
TITLE "Se d'ogni affetto umano"
PERFORMER "Miricioiu_Michaels-Moore_Jerome_Mitchell_Choir_Philh_ Orch_Parry"
INDEX 01 03:05:02
TRACK 03 AUDIO
TITLE "In fera pugna stanco"
PERFORMER "Miricioiu_Michaels-Moore_Jerome_Mitchell_Choir_Philh_ Orch_Parry"
INDEX 01 05:42:50
TRACK 04 AUDIO
TITLE "Ardente amor di gloria"
PERFORMER "Miricioiu_Michaels-Moore_Jerome_Mitchell_Choir_Philh_ Orch_Parry"
INDEX 01 10:08:64
TRACK 05 AUDIO
TITLE "Giuramento - Pria di pugnar si sciolgano"
PERFORMER "Miricioiu_Michaels-Moore_Jerome_Mitchell_Choir_Philh_ Orch_Parry"
INDEX 01 12:41:27
TRACK 06 AUDIO
TITLE "Non di trombe"
PERFORMER "Miricioiu_Michaels-Moore_Jerome_Mitchell_Choir_Philh_ Orch_Parry"
INDEX 01 25:47:47
TRACK 07 AUDIO
TITLE "Scena ed aria Camilla - Ecco il delubro!"
PERFORMER "Miricioiu_Michaels-Moore_Jerome_Mitchell_Choir_Philh_ Orch_Parry"
INDEX 00 29:50:60
INDEX 01 29:53:60
TRACK 08 AUDIO
TITLE "La mia prece"
PERFORMER "Miricioiu_Michaels-Moore_Jerome_Mitchell_Choir_Philh_ Orch_Parry"
INDEX 01 37:16:20
TRACK 09 AUDIO
TITLE "O voce di fato"
PERFORMER "Miricioiu_Michaels-Moore_Jerome_Mitchell_Choir_Philh_ Orch_Parry"
INDEX 01 42:04:37
TRACK 10 AUDIO
TITLE "Arde già l'atroce guerra!.."
PERFORMER "Miricioiu_Michaels-Moore_Jerome_Mitchell_Choir_Philh_ Orch_Parry"
INDEX 01 50:11:02

CD3

REM GENRE Opera
REM DATE 1995
REM DISCID A40C980C
REM COMMENT "ExactAudioCopy v1.0b6"
PERFORMER "Miricioiu_Michaels-Moore_Jerome_Mitchell_Choir_Philh_ Orch_Parry"
TITLE "Mercadante - Orazi e Curiazi, Parry CD3"
FILE "Mercadante - Orazi e Curiazi, Parry CD3.ape" WAVE
TRACK 01 AUDIO
TITLE "Act Three - Aria Curiazio - All'occaso volgea"
PERFORMER "Miricioiu_Michaels-Moore_Jerome_Mitchell_Choir_Philh_ Orch_Parry"
INDEX 01 00:00:00
TRACK 02 AUDIO
TITLE "Ah! come a lei mostrarmi"
PERFORMER "Miricioiu_Michaels-Moore_Jerome_Mitchell_Choir_Philh_ Orch_Parry"
INDEX 01 06:07:67
TRACK 03 AUDIO
TITLE "Non l'odi¿ Vil mi chiama"
PERFORMER "Miricioiu_Michaels-Moore_Jerome_Mitchell_Choir_Philh_ Orch_Parry"
INDEX 01 10:58:05
TRACK 04 AUDIO
TITLE "Aria Vecchio Orazio - Sull'alto delle mura"
PERFORMER "Miricioiu_Michaels-Moore_Jerome_Mitchell_Choir_Philh_ Orch_Parry"
INDEX 01 14:52:00
TRACK 05 AUDIO
TITLE "Oh! se morendo"
PERFORMER "Miricioiu_Michaels-Moore_Jerome_Mitchell_Choir_Philh_ Orch_Parry"
INDEX 01 19:27:54
TRACK 06 AUDIO
TITLE "Piango...ma queste lagrime"
PERFORMER "Miricioiu_Michaels-Moore_Jerome_Mitchell_Choir_Philh_ Orch_Parry"
INDEX 01 24:30:27
TRACK 07 AUDIO
TITLE "Finale terzo - Salve, guerrier magnanimo"
PERFORMER "Miricioiu_Michaels-Moore_Jerome_Mitchell_Choir_Philh_ Orch_Parry"
INDEX 01 27:02:00
TRACK 08 AUDIO
TITLE "Dammi, se a queste lagrime"
PERFORMER "Miricioiu_Michaels-Moore_Jerome_Mitchell_Choir_Philh_ Orch_Parry"
INDEX 01 33:22:27
TRACK 09 AUDIO
TITLE "Ah! su lei tremendo foco"
PERFORMER "Miricioiu_Michaels-Moore_Jerome_Mitchell_Choir_Philh_ Orch_Parry"
INDEX 01 39:04:55
TRACK 10 AUDIO
TITLE "Sento...l'estremo...anelito!.."
PERFORMER "Miricioiu_Michaels-Moore_Jerome_Mitchell_Choir_Philh_ Orch_Parry"
INDEX 01 42:58:67
TRACK 11 AUDIO
TITLE "Appendix - Scena ed aria Camilla - Quale orrendo vel mi cinge.."
PERFORMER "Miricioiu_Michaels-Moore_Jerome_Mitchell_Choir_Philh_ Orch_Parry"
INDEX 00 47:45:15
INDEX 01 47:52:15
TRACK 12 AUDIO
TITLE "Ah no, l'inique spade"
PERFORMER "Miricioiu_Michaels-Moore_Jerome_Mitchell_Choir_Philh_ Orch_Parry"
INDEX 01 50:05:45
Доп. информация:
Orazi e Curiazi (The Horatii and the Curiatii) takes the form of a tragedia lirica in three acts. The libretto, by Salvadore Cammarano is based on Corneille’s tragedy Les Horaces concerns a long and bitter feud between two noble Roman families. This violent story is brought vividly to life by Mercadante’s 1846 opera. The complex and demanding vocal writing is reminiscent at times of Verdi, the only rival Mercadante faced at this point of his career. The finale, in which Nelly Miricioiu’s impassioned Camilla curses Rome, ranks among the finest scenes in 19th century opera.



Показать сообщения:    

Текущее время: 11-Дек 11:02

Часовой пояс: UTC + 3


Вы не можете начинать темы
Вы не можете отвечать на сообщения
Вы не можете редактировать свои сообщения
Вы не можете удалять свои сообщения
Вы не можете голосовать в опросах
Вы не можете прикреплять файлы к сообщениям
Вы не можете скачивать файлы