Джими Хендрикс / Jimi Hendrix: Hear My Train a Comin' (Боб Смитон / Bob Smeaton) [2013, Документальный, HDTVRip-AVC] MVO (Эй Би Видео)


Статистика раздачи [Обновить пиров]
Размер:  1.2 GB   |    Зарегистрирован:  8 месяцев 15 дней   |    Скачан:  0 раз

Полного источника не было: Никогда

 
   
 
 
 

[Цитировать]

Джими Хендрикс / Jimi Hendrix: Hear My Train a Comin'- Дата/Год выпуска: 2013
Страна: США | Eagle Rock Entertainment | WNET Channel 13 New
Жанр: Документальный
Продолжительность: 1:30:47
Перевод: Профессиональный (многоголосый закадровый) | "Эй Би Видео" по заказу "1 Канала"
Режиссер: Боб Смитон / Bob Smeaton-Описание: Фильм от обладателя двух "Грэмми" Боба Смитона дарит зрителям не демонстрировавшиеся концертные видеозаписи, любительские кадры самого Хендрикса и барабанщика Митча Митчелла и обширный архив фотографий, рисунков и семейной переписки. Эти материалы позволяют взглянуть на личность и талант артиста под другим углом.- -Автор рипа: lrn
Автор записи: Alexin29
Сэмпл: sendfile-качество: HDTVRip-AVC
формат: MKV
Видео: 1024x576 (16:9), 25,000 fps, H264, ~1500 kbps avg, ~0.102 bit/pixel
Аудио: 48 kHz, AC3 Dolby Digital, 3/2 (L,C,R,l,r) + LFE ch, ~384.00 kbps avg-

MediaInfo

General
Unique ID : 175683503907269558211300703302052450754 (0x842B697ECB8576CE8E4E6FCB7ACB91C2)
Complete name : E:\uTorrent.Temp\Temp\Jimi.Hendrix.Hear.My.Train.a.Comin.2013.HDTVRip-AVC.x264-RUS-lrn.mkv
Format : Matroska
Format version : Version 4 / Version 2
File size : 1.20 GiB
Duration : 1h 30mn
Overall bit rate : 1 885 Kbps
Movie name : Jimi.Hendrix.Hear.My.Train.a.Comin.2013.HDTVRip-AVC.x264-RUS-lrn
Encoded date : UTC 2010-02-22 21:41:31
Writing application : mkvmerge v5.9.0 ('On The Loose') built on Dec 9 2012 15:37:01
Writing library : libebml v1.3.0 + libmatroska v1.4.0
DURATION : 01:30:47.320000000
NUMBER_OF_FRAMES : 136183
NUMBER_OF_BYTES : 1021086350
_STATISTICS_WRITING_APP : mkvmerge v7.7.0 ('Six Voices') 32bit built on Feb 28 2015 23:23:00
_STATISTICS_WRITING_DATE_UT : 2015-10-06 06:35:07
_STATISTICS_TAGS : BPS DURATION NUMBER_OF_FRAMES NUMBER_OF_BYTES
Video
ID : 1
Format : AVC
Format/Info : Advanced Video Codec
Format profile : High@L4.1
Format settings, CABAC : Yes
Format settings, ReFrames : 8 frames
Codec ID : V_MPEG4/ISO/AVC
Duration : 1h 30mn
Bit rate : 1 500 Kbps
Width : 1 024 pixels
Height : 576 pixels
Display aspect ratio : 16:9
Frame rate mode : Constant
Frame rate : 25.000 fps
Color space : YUV
Chroma subsampling : 4:2:0
Bit depth : 8 bits
Scan type : Progressive
Bits/(Pixel*Frame) : 0.102
Stream size : 951 MiB (78%)
Writing library : x264 core 146 r2538 121396c
Encoding settings : cabac=1 / ref=8 / deblock=1:-3:-3 / analyse=0x3:0x133 / me=umh / subme=9 / psy=1 / psy_rd=1.00:0.00 / mixed_ref=1 / me_range=32 / chroma_me=1 / trellis=2 / 8x8dct=1 / cqm=0 / deadzone=21,11 / fast_pskip=1 / chroma_qp_offset=-2 / threads=12 / lookahead_threads=2 / sliced_threads=0 / nr=0 / decimate=1 / interlaced=0 / bluray_compat=0 / constrained_intra=0 / bframes=8 / b_pyramid=2 / b_adapt=2 / b_bias=0 / direct=3 / weightb=1 / open_gop=0 / weightp=2 / keyint=250 / keyint_min=25 / scenecut=40 / intra_refresh=0 / rc_lookahead=50 / rc=2pass / mbtree=1 / bitrate=1500 / ratetol=1.0 / qcomp=0.60 / qpmin=0 / qpmax=69 / qpstep=4 / cplxblur=20.0 / qblur=0.5 / vbv_maxrate=62500 / vbv_bufsize=78125 / nal_hrd=none / filler=0 / ip_ratio=1.40 / aq=1:1.00
Default : Yes
Forced : No
Audio
ID : 2
Format : AC-3
Format/Info : Audio Coding 3
Mode extension : CM (complete main)
Format settings, Endianness : Big
Codec ID : A_AC3
Duration : 1h 30mn
Bit rate mode : Constant
Bit rate : 384 Kbps
Channel(s) : 6 channels
Channel positions : Front: L C R, Side: L R, LFE
Sampling rate : 48.0 KHz
Compression mode : Lossy
Delay relative to video : 100ms
Stream size : 249 MiB (20%)
Language : Russian
Default : Yes
Forced : No

x264 log

raw [info]: 1024x576p 1:1 @ 25/1 fps (cfr)
x264 [info]: using SAR=1/1
x264 [info]: using cpu capabilities: MMX2 SSE2Fast SSSE3 SSE4.2 AVX
x264 [info]: profile High, level 4.1
x264 [info]: frame I:851 Avg QP:18.60 size: 47380
x264 [info]: frame P:34876 Avg QP:21.92 size: 13160
x264 [info]: frame B:100456 Avg QP:23.91 size: 5194
x264 [info]: consecutive B-frames: 2.5% 5.1% 5.4% 58.2% 8.8% 12.4% 2.5% 4.3% 0.8%
x264 [info]: mb I I16..4: 12.7% 76.1% 11.2%
x264 [info]: mb P I16..4: 2.6% 12.4% 0.7% P16..4: 42.4% 11.3% 9.0% 0.1% 0.1% skip:21.3%
x264 [info]: mb B I16..4: 0.2% 1.4% 0.1% B16..8: 34.2% 6.4% 1.2% direct: 5.7% skip:50.9% L0:44.4% L1:49.0% BI: 6.6%
x264 [info]: 8x8 transform intra:80.0% inter:79.4%
x264 [info]: direct mvs spatial:96.3% temporal:3.7%
x264 [info]: coded y,uvDC,uvAC intra: 68.9% 54.3% 20.1% inter: 18.7% 16.6% 0.5%
x264 [info]: i16 v,h,dc,p: 31% 16% 8% 45%
x264 [info]: i8 v,h,dc,ddl,ddr,vr,hd,vl,hu: 10% 7% 7% 9% 14% 15% 14% 12% 12%
x264 [info]: i4 v,h,dc,ddl,ddr,vr,hd,vl,hu: 13% 7% 4% 9% 15% 16% 14% 11% 11%
x264 [info]: i8c dc,h,v,p: 51% 18% 15% 17%
x264 [info]: Weighted P-Frames: Y:6.6% UV:2.3%
x264 [info]: ref P L0: 47.7% 11.9% 16.3% 6.9% 5.5% 4.5% 4.1% 2.7% 0.5% 0.0%
x264 [info]: ref B L0: 76.0% 11.1% 5.7% 2.8% 2.2% 1.4% 0.7%
x264 [info]: ref B L1: 94.3% 5.7%
x264 [info]: kb/s:1499.58
encoded 136183 frames, 27.41 fps, 1499.58 kb/s

Скриншоты

-
[teatrix.ru].t22408.torrent 
Торрент: Зарегистрирован [ 2016-03-20 12:35 ] · 40283BD52C357E59C489EDDFA4ED41A4873E0DD0

Скачать .torrent

Скачать

12 KB

Статус: проверено
Скачан: 0 раз
Размер: 1.2 GB
terms.php



Быстрый ответ

Имя:

      
Для отправки сообщений необходимо включить JavaScript
Показать сообщения:    

Текущее время: 04-Дек 15:17

Часовой пояс: UTC + 3


Вы можете начинать темы
Вы можете отвечать на сообщения
Вы не можете редактировать свои сообщения
Вы не можете удалять свои сообщения
Вы не можете голосовать в опросах
Вы не можете прикреплять файлы к сообщениям
Вы можете скачивать файлы