[TR24][SM][OF] Elgar · Enigma Variations / Vaughan Williams · English Folk Song Suite & Fantasia on 'Greensleeves' - Sir Adrian Boult & London Symphony Orchestra - 1971 (Classical)


Статистика раздачи [Обновить пиров]
Размер:  855 MB   |    Зарегистрирован:  8 месяцев 15 дней   |    Скачан:  0 раз

Полного источника не было: Никогда

 
   
 
 
 

[Цитировать]

·
·
·

SIR ADRIAN BOULT
London Symphony Orchestra
Жанр: Orchestral
Носитель: Official Digital Download
Год издания диска: Ⓟ 1971, 2011 EMI Records Ltd.
Год переиздания диска: © 2012 EMI Records Ltd.
Номер по каталогу: ASD 2750
Продолжительность: 43:26
Наличие сканов в содержимом раздачи: cover art
Контейнер: FLAC (*.flac)
Разрядность: 24/96
Количество каналов: 2.0
Формат: tracks
Источник: HDtracks
Pелизер: WEB (thanks to the original customer)

Треклист

Ralph Vaughan Williams (1872-1958)
01 Fantasia on 'Greensleeves' 04:41
English Folk Song Suite
02 I. March (Seventeen Come Sunday) 02:52
03 II. Intermezzo (My Bonny Boy) 02:52
04 III. March (Folk Songs from Somerset) 03:03
·
Edward Elgar (1857-1934)
Variations on an Original Theme 'Enigma' Op.36
05 Theme (Andante) 01:31
06 I. C.A.E. (the composer's wife) (L'istesso tempo) 01:43
07 II. H.D.S.-P. ( Hew David Steuart-Powell) (Allegro) 00:46
08 III. R.B.T. (Richard Baxter Townshend) (Allegretto) 01:27
09 IV. W.M.B. (William Meath Baker) (Allegro di molto) 00:28
10 V. R.P.A. (Richard Penrose Arnold) (Presto) 01:53
11 VI. Ysobel (Isabel Fitton) (Andantino) 01:12
12 VII. Troyte (Troyte Griffith) (Presto) 00:57
13 VIII. W.N. (Winifred Norbury) (Allegretto) 01:42
14 IX. Nimrod (A. J. Jaeger) (Moderato) 03:53
15 X. Intermezzo: Dorabella (Dora Penny) (Allegretto) 02:52
16 XI. G.R.S. (George Robertson Sinclair) (Allegro di molto) 00:58
17 XII. B.G.N. (Basil G. Nevinson) (Andante) 02:20
18 XIII. Romanza: * * * [Lady Mary Lygon] (Moderato) 02:33
19 XIV. Finale: E.D.U. (the composer) (Allegro) 05:43

Dynamic Range Meter

foobar2000 1.2.6 / Dynamic Range Meter 1.1.1
log date: 2015-10-07 19:23:19
--------------------------------------------------------------------------------
Analyzed: London Symphony Orchestra, Sir Adrian Boult / Elgar: Enigma Variations / Vaughan Williams: Fantasia on Greensleeves
--------------------------------------------------------------------------------
DR Peak RMS Duration Track
--------------------------------------------------------------------------------
DR13 -6.02 dB -23.98 dB 4:41 01-Fantasia on Greensleeves
DR10 -0.13 dB -16.14 dB 2:53 02-English Folk Song Suite: I. March (Seventeen Come Sunday)
DR14 -4.01 dB -24.18 dB 2:53 03-English Folk Song Suite: II. Intermezzo (My Bonny Boy)
DR10 -1.07 dB -15.17 dB 3:03 04-English Folk Song Suite: III. March (Folk Songs from Somerset)
DR11 -6.19 dB -22.76 dB 1:31 05-Variations on an Original Theme, Op.36 'Enigma': Theme (Andante)
DR10 -1.82 dB -18.57 dB 1:44 06-Variations on an Original Theme, Op.36 'Enigma': I. C.A.E. (the composer's wife) (L'istesso tempo)
DR12 -4.36 dB -22.28 dB 0:46 07-Variations on an Original Theme, Op.36 'Enigma': II. H.D.S.-P. ( Hew David Steuart-Powell) (Allegro)
DR11 -1.95 dB -19.78 dB 1:27 08-Variations on an Original Theme, Op.36 'Enigma': III. R.B.T. (Richard Baxter Townshend) (Allegretto)
DR9 -1.83 dB -14.38 dB 0:28 09-Variations on an Original Theme, Op.36 'Enigma': IV. W.M.B. (William Meath Baker) (Allegro di molto)
DR10 -3.09 dB -20.39 dB 1:53 10-Variations on an Original Theme, Op.36 'Enigma': V. R.P.A. (Richard Penrose Arnold) (Presto)
DR11 -4.26 dB -22.31 dB 1:12 11-Variations on an Original Theme, Op.36 'Enigma': VI. Ysobel (Isabel Fitton) (Andantino)
DR10 -1.84 dB -14.82 dB 0:57 12-Variations on an Original Theme, Op.36 'Enigma': VII. Troyte (Troyte Griffith) (Presto)
DR11 -3.31 dB -20.79 dB 1:43 13-Variations on an Original Theme, Op.36 'Enigma': VIII. W.N. (Winifred Norbury) (Allegretto)
DR9 -2.29 dB -16.75 dB 3:55 14-Variations on an Original Theme, Op.36 'Enigma': IX. Nimrod (A. J. Jaeger) (Moderato)
DR13 -8.14 dB -27.33 dB 2:52 15-Variations on an Original Theme, Op.36 'Enigma': X. Intermezzo: Dorabella (Dora Penny) (Allegretto)
DR9 -0.63 dB -14.55 dB 0:58 16-Variations on an Original Theme, Op.36 'Enigma': XI. G.R.S. (George Robertson Sinclair) (Allegro di molto)
DR10 -4.00 dB -21.96 dB 2:21 17-Variations on an Original Theme, Op.36 'Enigma': XII. B.G.N. (Basil G. Nevinson) (Andante)
DR13 -3.15 dB -24.65 dB 2:33 18-Variations on an Original Theme, Op.36 'Enigma': XIII. Romanza: * * * [Lady Mary Lygon] (Moderato)
DR10 -0.65 dB -15.03 dB 5:43 19-Variations on an Original Theme, Op.36 'Enigma': XIV. Finale: E.D.U. (the composer) (Allegro)
--------------------------------------------------------------------------------
Number of tracks: 19
Official DR value: DR11
Samplerate: 96000 Hz
Channels: 2
Bits per sample: 24
Bitrate: 2815 kbps
Codec: FLAC
================================================================================
[teatrix.ru].t22410.torrent 
Торрент: Зарегистрирован [ 2016-03-20 12:35 ] · 97AB96065D531A5EB759271857357DEC967B4053

Скачать .torrent

Скачать

20 KB

Статус: проверено
Скачан: 0 раз
Размер: 855 MB
terms.php



Быстрый ответ

Имя:

      
Для отправки сообщений необходимо включить JavaScript
Показать сообщения:    

Текущее время: 04-Дек 17:17

Часовой пояс: UTC + 3


Вы можете начинать темы
Вы можете отвечать на сообщения
Вы не можете редактировать свои сообщения
Вы не можете удалять свои сообщения
Вы не можете голосовать в опросах
Вы не можете прикреплять файлы к сообщениям
Вы можете скачивать файлы