(Chamber) Lost Avant-Garde: Н.Рославец - Квартет №3 | Е.Голышев - Трио »Zwolftondauermusik« | И.Вышнеградский - Композиция | Д.Мелких - Квартет №1 (Квартет »Студия Новой Музыки«) - 2014, FLAC (image+.cue) lossless


 

[Цитировать]

Lost Avant-Garde
Roslavets | Golyshev | Wyschnegradsky | Melkikh
STUDIO FOR NEW MUSIC string quartet--- Жанр: Chamber
Страна-производитель диска: Россия
Год издания диска: 2014
Издатель (лейбл): MCR
Дата записи: 2012-14
Аудиокодек: FLAC
Тип рипа: image+.cue
Битрейт аудио: lossless
Продолжительность: 64'39''
Источник: собственный рип
Наличие сканов в содержимом раздачи: да
Треклист:
[01] Н.Рославец - Струнный квартет №3
[02] Е.Голышев - Струнное трио »Zwölftondauermusik«: I. Mezzo-forte
[03] II. Fortissimo
[04] III. Piano
[05] IV. Pianissimo
[06] V. Adagio
[07] И.Вышнеградский - Композиция для струнного квартета
[08] Д.Мелких - Струнный квартет №1: I.Allegro vivace
[09] II. Vivace. Scherzando
[10] III. Adagio
[11] IV. Incalzando
Исполнители:
Струнный Квартет »Студия Новой Музыки«-

Лог создания рипа

Exact Audio Copy V1.0 beta 4 from 7. December 2014
EAC extraction logfile from 16. September 2015, 0:22
Studio for New Music String Quartet / Lost Avant-Garde
Used drive : PHILIPS PCRW804 Adapter: 1 ID: 1
Read mode : Secure
Utilize accurate stream : Yes
Defeat audio cache : Yes
Make use of C2 pointers : No
Read offset correction : -436
Overread into Lead-In and Lead-Out : No
Fill up missing offset samples with silence : Yes
Delete leading and trailing silent blocks : No
Null samples used in CRC calculations : Yes
Used interface : Native Win32 interface for Win NT & 2000
Used output format : User Defined Encoder
Selected bitrate : 1024 kBit/s
Quality : High
Add ID3 tag : No
Command line compressor : C:\Program Files (x86)\FLAC\flac.exe
Additional command line options : -T "COMMENT=rip by el coronel" -8 -V %source%
TOC of the extracted CD
Track | Start | Length | Start sector | End sector
---------------------------------------------------------
1 | 0:00.00 | 12:30.00 | 0 | 56249
2 | 12:30.00 | 4:01.62 | 56250 | 74386
3 | 16:31.62 | 1:22.48 | 74387 | 80584
4 | 17:54.35 | 2:52.24 | 80585 | 93508
5 | 20:46.59 | 2:16.46 | 93509 | 103754
6 | 23:03.30 | 2:57.45 | 103755 | 117074
7 | 26:01.00 | 8:50.00 | 117075 | 156824
8 | 34:51.00 | 9:27.20 | 156825 | 199369
9 | 44:18.20 | 4:45.56 | 199370 | 220800
10 | 49:04.01 | 9:01.17 | 220801 | 261392
11 | 58:05.18 | 6:33.57 | 261393 | 290924
Range status and errors
Selected range
Filename F:\Music\Lost Avantgarde (Roslavets, Wyschnegradsky, Golyshev, Melkikh)\CD.wav
Peak level 95.5 %
Extraction speed 2.1 X
Range quality 100.0 %
Test CRC 155595B3
Copy CRC 155595B3
Copy OK
No errors occurred
AccurateRip summary
Track 1 not present in database
Track 2 not present in database
Track 3 not present in database
Track 4 not present in database
Track 5 not present in database
Track 6 not present in database
Track 7 not present in database
Track 8 not present in database
Track 9 not present in database
Track 10 not present in database
Track 11 not present in database
None of the tracks are present in the AccurateRip database
End of status report
---- CUETools DB Plugin V2.1.4
[CTDB TOCID: jh5vS8VWldylggPZR7BC.5y2SS8-] disk not present in database
Submit result: jh5vS8VWldylggPZR7BC.5y2SS8- has been uploaded
==== Log checksum 3095764B4E85593B6325CCE8ABE1B11AB758D9C831E9114FC6E15E534AA24B53 ====

Содержание индексной карты (.CUE)

REM GENRE Avantgarde
REM DATE 2014
REM DISCID A90F270B
REM COMMENT "ExactAudioCopy v1.0b4"
PERFORMER "Studio for New Music String Quartet"
TITLE "Lost Avant-Garde"
FILE "CD.flac" WAVE
TRACK 01 AUDIO
TITLE "N.Roslavets - String Quartet No.3"
PERFORMER "Studio for New Music String Quartet"
INDEX 01 00:00:00
TRACK 02 AUDIO
TITLE "Y.Golyshev - String Trio 'Zwolftondauermusik': I. Mezzo-forte"
PERFORMER "Studio for New Music String Quartet"
INDEX 00 12:22:00
INDEX 01 12:30:00
TRACK 03 AUDIO
TITLE "II. Fortissimo"
PERFORMER "Studio for New Music String Quartet"
INDEX 01 16:31:62
TRACK 04 AUDIO
TITLE "III. Piano"
PERFORMER "Studio for New Music String Quartet"
INDEX 01 17:54:35
TRACK 05 AUDIO
TITLE "IV. Pianissimo"
PERFORMER "Studio for New Music String Quartet"
INDEX 01 20:46:59
TRACK 06 AUDIO
TITLE "V. Adagio"
PERFORMER "Studio for New Music String Quartet"
INDEX 01 23:03:30
TRACK 07 AUDIO
TITLE "I.Wyschnegradsky - Composition for String Quartet"
PERFORMER "Studio for New Music String Quartet"
INDEX 00 25:53:00
INDEX 01 26:01:00
TRACK 08 AUDIO
TITLE "D.Melkikh - String Quartet No.1: I.Allegro vivace"
PERFORMER "Studio for New Music String Quartet"
INDEX 00 34:43:00
INDEX 01 34:51:00
TRACK 09 AUDIO
TITLE "II. Vivace. Scherzando"
PERFORMER "Studio for New Music String Quartet"
INDEX 01 44:18:20
TRACK 10 AUDIO
TITLE "III. Adagio"
PERFORMER "Studio for New Music String Quartet"
INDEX 01 49:04:01
TRACK 11 AUDIO
TITLE "IV. Incalzando"
PERFORMER "Studio for New Music String Quartet"
INDEX 01 58:05:18



Показать сообщения:    

Текущее время: 10-Дек 17:39

Часовой пояс: UTC + 3


Вы не можете начинать темы
Вы не можете отвечать на сообщения
Вы не можете редактировать свои сообщения
Вы не можете удалять свои сообщения
Вы не можете голосовать в опросах
Вы не можете прикреплять файлы к сообщениям
Вы не можете скачивать файлы