Магия лунного света / Magic in the Moonlight (Вуди Аллен / Woody Allen) [2014, США, Великобритания, мелодрама, комедия, BDRip] Dub (BD RUS) + Sub Rus, Eng


 

[Цитировать]

--Магия лунного света / Magic in the Moonlight- Страна: США, Великобритания
Жанр: мелодрама, комедия
Год выпуска: 2014
Продолжительность: 01:37:37-Перевод: Профессиональный (дублированный) BD RUS
Субтитры: русские, английские (обычные, SDH, SDH-Colored)
Режиссер: Вуди Аллен / Woody Allen-В ролях: Колин Фёрт, Эмма Стоун, Антония Кларк, Наташа Эндрюс, Валери Больё, Питер Уоллаш, Юрген Цвингель, Вольфганг Писсорс, Себастьен Сиро, Саймон МакБерни
Описание: 1928 год. Выдающийся иллюзионист по просьбе своего друга и коллеги приезжает на Лазурный Берег разоблачить молодую привлекательную шарлатанку, якобы умеющую вызывать духов умерших. Она очаровала богатого наследника и его мать-вдову, а это не устраивает других членов семьи.-| Сэмпл | IMDB | КиноПоиск |

Автор рипа: yaroslaigor-Качество видео: BDRip (источник)
Формат видео: AVI
Видео: 720x304 (2.37:1), 23.976 fps, XviD build 65 ~1736 kbps avg, 0.33 bit/pixel
Аудио: 48 kHz, AC3 Dolby Digital, 3/2 (L,C,R,l,r) + LFE ch, ~384 kbps avg
Формат субтитров: softsub (SRT)

MediaInfo

Общее
Полное имя : E:\MOVIES\Magiya.lunnogo.sveta.2014.RUS.BDRip.XviD.AC3.-HQCLUB.avi
Формат : AVI
Формат/Информация : Audio Video Interleave
Размер файла : 1,45 Гбайт
Продолжительность : 1 ч. 37 м.
Общий поток : 2129 Кбит/сек
Название фильма : Магия лунного света / Magic in the Moonlight (2014) BDRip
Жанр : мелодрама, комедия
Программа кодирования : VirtualDubMod 1.5.10.2 (build 2542/release)
Примечание : 07.10.2015
Видео
Идентификатор : 0
Формат : MPEG-4 Visual
Профиль формата : Advanced Simple@L5
Параметр BVOP формата : 1
Параметр QPel формата : Нет
Параметр GMC формата : Без точки перехода
Параметр матрицы формата : Выборочная
Идентификатор кодека : XVID
Идентификатор кодека/Подсказка : XviD
Продолжительность : 1 ч. 37 м.
Битрейт : 1736 Кбит/сек
Ширина : 720 пикселей
Высота : 304 пикселя
Соотношение сторон : 2,35:1
Частота кадров : 23,976 кадра/сек
Цветовое пространство : YUV
Субдискретизация насыщенности : 4:2:0
Битовая глубина : 8 бит
Тип развёртки : Прогрессивная
Метод сжатия : С потерями
Бит/(Пиксели*Кадры) : 0.331
Размер потока : 1,18 Гбайт (82%)
Библиотека кодирования : XviD 65
Аудио
Идентификатор : 1
Формат : AC-3
Формат/Информация : Audio Coding 3
Расширение режима : CM (complete main)
Параметр Endianness формата : Big
Идентификатор кодека : 2000
Продолжительность : 1 ч. 37 м.
Вид битрейта : Постоянный
Битрейт : 384 Кбит/сек
Каналы : 6 каналов
Расположение каналов : Front: L C R, Side: L R, LFE
Частота : 48,0 КГц
Битовая глубина : 16 бит
Метод сжатия : С потерями
Размер потока : 268 Мбайт (18%)
Выравнивание : Разделение по промежуткам
Продолжительность промежутка : 42 мс. (1,00 видеокадр)
Время предзагрузки промежутка : 500 мс.

Скриншот c названием фильма

Скриншоты




Показать сообщения:    

Текущее время: 07-Дек 13:41

Часовой пояс: UTC + 3


Вы не можете начинать темы
Вы не можете отвечать на сообщения
Вы не можете редактировать свои сообщения
Вы не можете удалять свои сообщения
Вы не можете голосовать в опросах
Вы не можете прикреплять файлы к сообщениям
Вы не можете скачивать файлы