[TR24][SM][OF] Johann Sebastian Bach - Goldberg Variations, BWV 988 (Kimiko Ishizaka, piano) - 2012 (Classical, Piano)


Статистика раздачи [Обновить пиров]
Размер:  1.3 GB   |    Зарегистрирован:  9 месяцев 30 дней   |    Скачан:  0 раз

Полного источника не было: Никогда

 
   
 
 
 

[Цитировать]

Johann Sebastian Bach
Goldberg Variations, BWV 988
Kimiko Ishizaka, piano


Жанр: Classical, Piano Год издания диска: 2012 Дата записи: 2012
Лейбл:Open Goldberg Аудиокодек: FLAC (24bit/96KHz) Тип рипа: tracks
Битрейт аудио: lossless Продолжительность: 01:21:56
Источник: opengoldbergvariations.org


Recorded by Kimiko Ishizaka on a Bösendorfer 290 Imperial in the Teldex Studio, Berlin
Produced by Anne-Marie Sylvestre, 2012.


Треклист

Disc: 1
1. Aria
2. Variatio 1. a 1 Clav.
3. Variatio 2. a 1 Clav.
4. Variatio 3. Canone all Unisono. a 1 Clav.
5. Variatio 4. a 1 Clav.
6. Variatio 5. a 1 o vero 2 Clav.
7. Variatio 6. Canone alla Seconda. a 1 Clav.
8. Variatio 7. a 1 o vero 2 Clav. al tempo di Giga
9. Variatio 8. a 2 Clav.
10. Variatio 9. Canone alla Terza. a 1 Clav.
11. Variatio 10. Fughetta. a 1 Clav.
12. Variatio 11. a 2 Clav.
13. Variatio 12. Canone alla Quarta
14. Variatio 13. a 2 Clav.
15. Variatio 14. a 2 Clav.
16. Variatio 15. Canone alla Quinta. a 1 Clav.: Andante
Disc: 2
1. Variatio 16. Ouverture. a 1 Clav.
2. Variatio 17. a 2 Clav.
3. Variatio 18. Canone alla Sesta. a 1 Clav.
4. Variatio 19. a 1 Clav.
5. Variatio 20. a 2 Clav.
6. Variatio 21. Canone alla Settima
7. Variatio 22. a 1 Clav. alla breve
8. Variatio 23. a 2 Clav.
9. Variatio 24. Canone all'Ottava. a 1 Clav.
10. Variatio 25. a 2 Clav. adagio
11. Variatio 26. a 2 Clav.
12. Variatio 27. Canone alla Nona. a 2 Clav.
13. Variatio 28. a 2 Clav.
14. Variatio 29. a 1 o vero 2 Clav.
15. Variatio 30. a 1 Clav. Quodlibet
16. Aria da Capo

Об исполнителе



Кимико Ишизака с Божью, родительской и врачебной помощью родилась 4 декабря 1976 года, в Бонне, что в Германии. К слову, в этом же городе когда-то был рождён и тот самый Бетховен.
То ли лев на гербе города, то ли общая культура Германии, то ли на редкость адекватные родители повлияли на то, что уже в четыре года юная Кимико начала заниматься музыкой. Позже она заканчивает с отличием Кёльнскую высшую школу музыки. А в 1998 вместе со своими двумя братьями выигрывает национальный немецкий конкурс.
После, видимо, изучения биографии известного и выдающегося виолончелиста Андре Наварры, который как известно чуть не стал профессиональным спортсменом (боксером), Кимико решила, что и она не одним ухом делана, и пошла во все тяжкие, т.е. в пауэрлифтинг (силовое троеборие). В 2005 году она выигрывает бронзу на немецких соревнованиях, а в 2006 - серебро, после чего переходит в тяжелую атлетику, где выигрывает еще три медали.


В перерывах, связанных с восстановлением мышц щек и иных органов, Кимико не забывает и про музыку.
Вот, например, в 2012 году, удивительная штангистка-музыкантка-японка-немка записывает (и как здорово!) знаменитые "гольдберги", и не просто так, а на условиях Creative Commons Zero (общественное достояние), а если быть точным, то на условиях гибридного отказа от авторских прав и публичной, свободной лицензии.
Сыграла, великолепно сыграла, записала, и выставила в свободный доступ.
А теперь Кимико в турне с ХТК.

DRM log

DRM photo

CD1

foobar2000 1.3.8 / Замер динамического диапазона (DR) 1.1.1
Дата отчёта: 2015-10-09 11:03:55
--------------------------------------------------------------------------------
Анализ: Kimiko Ishizaka / Goldberg Variations, BWV 988, CD1
--------------------------------------------------------------------------------
DR Пики RMS Продолжительность трека
--------------------------------------------------------------------------------
DR13 -8.55 дБ -26.56 дБ 5:00 01-Aria
DR12 -0.43 дБ -16.80 дБ 1:55 02-Variatio 1 a 1 Clav.
DR11 -7.25 дБ -22.58 дБ 2:04 03-Variatio 2 a 1 Clav.
DR11 -3.01 дБ -19.43 дБ 1:57 04-Variatio 3 a 1 Clav. Canone all'Unisuono
DR12 -1.68 дБ -17.86 дБ 1:09 05-Variatio 4 a 1 Clav.
DR12 -2.25 дБ -17.66 дБ 1:34 06-Variatio 5 a 1 ovvero 2 Clav.
DR12 -5.62 дБ -23.11 дБ 1:38 07-Variatio 6 a 1 Clav. Canone alla Seconda
DR13 -5.13 дБ -24.07 дБ 2:12 08-Variatio 7 a 1 ovvero 2 Clav.
DR11 -2.14 дБ -16.76 дБ 1:57 09-Variatio 8 a 2 Clav.
DR11 -8.02 дБ -23.40 дБ 2:06 10-Variatio 9 a 1 Clav. Canone alla Terza
DR12 -2.75 дБ -19.43 дБ 1:46 11-Variatio 10 a 1 Clav. Fughetta
DR12 -3.92 дБ -19.09 дБ 2:09 12-Variatio 11 a 2 Clav.
DR11 -3.43 дБ -18.12 дБ 2:16 13-Variatio 12 Canone alla Quarta
DR11 -8.58 дБ -24.20 дБ 4:14 14-Variatio 13 a 2 Clav.
DR12 -1.49 дБ -18.01 дБ 2:17 15-Variatio 14 a 2 Clav.
DR13 -6.74 дБ -24.21 дБ 4:33 16-Variatio 15 a 1 Clav. Canone alla Quinta
--------------------------------------------------------------------------------
Количество треков: 16
Реальные значения DR: DR12
Частота: 96000 Гц
Каналов: 2
Разрядность: 24
Битрейт: 2221 кбит/с
Кодек: FLAC
================================================================================

CD2

foobar2000 1.3.8 / Замер динамического диапазона (DR) 1.1.1
Дата отчёта: 2015-10-09 11:05:53
--------------------------------------------------------------------------------
Анализ: Kimiko Ishizaka / Goldberg Variations, BWV 988, CD2
--------------------------------------------------------------------------------
DR Пики RMS Продолжительность трека
--------------------------------------------------------------------------------
DR12 -2.98 дБ -18.70 дБ 3:09 17-Variatio 16 a 1 Clav. Ouverture
DR11 -2.50 дБ -16.92 дБ 1:44 18-Variatio 17 a 2 Clav.
DR12 -10.46 дБ -25.18 дБ 1:49 19-Variatio 18 a 1 Clav. Canone alla Sexta
DR11 -8.14 дБ -22.78 дБ 1:25 20-Variatio 19 a 1 Clav.
DR12 -2.70 дБ -17.52 дБ 2:05 21-Variatio 20 a 2 Clav.
DR13 -6.31 дБ -24.18 дБ 3:55 22-Variatio 21 Canone alla Settima
DR11 -4.40 дБ -20.95 дБ 1:33 23-Variatio 22 a 1 Clav
DR12 -1.62 дБ -17.86 дБ 2:20 24-Variatio 23 a 2 Clav.
DR12 -6.83 дБ -21.73 дБ 2:45 25-Variatio 24 a 1 Clav. Canone all'Ottava
DR15 -6.16 дБ -26.22 дБ 9:18 26-Variatio 25 a 2 Clav.
DR12 -3.97 дБ -18.35 дБ 2:03 27-Variatio 26 a 2 Clav.
DR11 -4.40 дБ -19.32 дБ 1:51 28-Variatio 27 a 2 Clav. Canone alla Nona
DR12 -3.60 дБ -19.72 дБ 2:26 29-Variatio 28 a 2 Clav.
DR11 -4.20 дБ -18.40 дБ 2:09 30-Variatio 29 a 1 ovvero 2 Clav.
DR12 -4.33 дБ -18.86 дБ 2:01 31-Variatio 30 a 1 Clav. Quodlibet
DR11 -13.02 дБ -28.64 дБ 2:50 32-Aria da Capo è Fine
--------------------------------------------------------------------------------
Количество треков: 16
Реальные значения DR: DR12
Частота: 96000 Гц
Каналов: 2
Разрядность: 24
Битрейт: 2153 кбит/с
Кодек: FLAC
================================================================================

Спектральный анализ одного из треков | foobar 2000 AuSpec

[teatrix.ru].t22415.torrent 
Торрент: Зарегистрирован [ 2016-03-20 12:35 ] · 3A2DE571023558592319153AAD44932B85158D4F

Скачать .torrent

Скачать

18 KB

Статус: проверено
Скачан: 0 раз
Размер: 1.3 GB
terms.php



Быстрый ответ

Имя:

      
Для отправки сообщений необходимо включить JavaScript
Показать сообщения:    

Текущее время: 19-Янв 16:05

Часовой пояс: UTC + 3


Вы можете начинать темы
Вы можете отвечать на сообщения
Вы не можете редактировать свои сообщения
Вы не можете удалять свои сообщения
Вы не можете голосовать в опросах
Вы не можете прикреплять файлы к сообщениям
Вы можете скачивать файлы