(Classical) Ludwig van Beethoven - Symphonies Nos. 1 - 9 (Dose, Schiml, Schreir, Adam; Staatskapelle Dresden; Herbert Blomstedt) - 2012, FLAC (image+.cue) lossless


 

[Цитировать]

Ludwig van Beethoven - Symphonies Nos. 1 - 9
Жанр: Classical
Год издания диска: 2012
Издатель (лейбл): Brilliant Classics
Номер по каталогу: 94289
Год записи: 1975-1980
Аудиокодек: FLAC
Тип рипа: image+.cue
Битрейт аудио: lossless
Продолжительность: CD1'01:16:47; CD2'01:12:17; CD3'01:18:49; CD4'01:09:00; CD5'01:12:15
Источник: скачано из сети
Наличие сканов в содержимом раздачи: да
Исполнители:
Helena Döse (soprano);
Marga Schiml (mezzo-soprano);
Peter Schreir (tenor);
Theo Adam (bass);
Staatskapelle Dresden;
Herbert Blomstedt (conductor)

Треклист:CD1:

Symphony No. 1 in C major Op. 21
01. 1. Adagio molto - Allegro con brio (09:03)
02. 2. Andante cantabile con moto (08:32)
03. 3. Menuetto. Allegro molto e vivace (03:26)
04. 4. Finale. Adagio - Allegro molto e vivace (06:19)
Symphony No. 3 in E flat major Op. 55 'Eroica'
05. 1. Allegro con brio (15:02)
06. 2. Marcia funebre. Adagio assai (16:47)
07. 3. Scherzo. Allegro vivace (05:49)
08. 4. Finale. Allegro molto (11:49)

CD2:

Symphony No.2 in D major Op.36
01. 1. Adagio molto - Allegro con brio (13:05)
02. 2. Larghetto (12:33)
03. 3. Scherzo: Allegro (04:06)
04. 4. Allegro molto (06:53)
Symphony No.4 in B flat major Op.60
05. 1. Adagio - Allegro vivace (12:09)
06. 2. Adagio (10:31)
07. 3. Allegro vivace (05:50)
08. 4. Allegro ma non troppo (07:10)

CD3:

Symphony No.5 in C minor Op.67
01. 1. Allegro con brio (08:05)
02. 2. Andante con moto (11:21)
03. 3. Allegro. Attacca (08:53)
04. 4. Allegro. Presto (09:02)
Symphony No.6 in F major Op.68
05. 1. Allegro ma non troppo (09:31)
06. 2. Andante molto mosso (12:40)
07. 3. Allegro (05:44)
08. 4. Allegro (03:42)
09. 5. Allegretto (09:51)

CD4:

Symphony No.7 in A major Op.92
01. 1. Poco sostenuto - Vivace (13:31)
02. 2. Allegretto (09:57)
03. 3. Scherzo. Presto (09:44)
04. 4. Allegro con brio (09:13)
Symphony No.8 in F major Op.93
05. 1. Allegro vivace econ brio (10:02)
06. 2. Allegretto scherzando (03:56)
07. 3. Tempo di menuetto (04:47)
08. 4. Allegro vivace (07:50)

CD5:

Symphony No.9 in D minor Op.125
01. 1. Allegro ma non troppo, un po... (16:55)
02. 2. Molto vivace - Presto (13:47)
03. 3. Adagio molto e cantabile - A... (16:24)
04. 4. Presto Allegro assai etc. (25:09)

Log EAC:LOG CD01:

Exact Audio Copy V1.0 beta 1 from 15. November 2010
EAC extraction logfile from 7. April 2013, 10:47
Herbert Blomstedt, Staatskapelle Dresden / Beethoven - Symphonies Nos. 1 & 3
Used drive : ASUS DRW-1814BL Adapter: 2 ID: 0
Read mode : Secure
Utilize accurate stream : Yes
Defeat audio cache : Yes
Make use of C2 pointers : No
Read offset correction : 6
Overread into Lead-In and Lead-Out : No
Fill up missing offset samples with silence : Yes
Delete leading and trailing silent blocks : No
Null samples used in CRC calculations : Yes
Used interface : Native Win32 interface for Win NT & 2000
Used output format : User Defined Encoder
Selected bitrate : 320 kBit/s
Quality : High
Add ID3 tag : No
Command line compressor : C:\Program Files\Exact Audio Copy\FLAC\FLAC.EXE
Additional command line options : -V -8 -T "artist=%a" -T "title=%t" -T "album=%g" -T "date=%y" -T "tracknumber=%n" -T "genre=%m" %s
TOC of the extracted CD
Track | Start | Length | Start sector | End sector
---------------------------------------------------------
1 | 0:00.00 | 9:03.45 | 0 | 40769
2 | 9:03.45 | 8:32.45 | 40770 | 79214
3 | 17:36.15 | 3:26.42 | 79215 | 94706
4 | 21:02.57 | 6:19.00 | 94707 | 123131
5 | 27:21.57 | 15:02.65 | 123132 | 190846
6 | 42:24.47 | 16:47.35 | 190847 | 266406
7 | 59:12.07 | 5:49.05 | 266407 | 292586
8 | 65:01.12 | 11:49.53 | 292587 | 345814
Range status and errors
Selected range
Filename G:\MUSIC COPIES\Beethoven - Blomstedt\CD1\Herbert Blomstedt, Staatskapelle Dresden - Beethoven - Symphonies Nos. 1 & 3.wav
Peak level 98.0 %
Extraction speed 1.5 X
Range quality 100.0 %
Test CRC 37D938A3
Copy CRC 37D938A3
Copy OK
No errors occurred
AccurateRip summary
Track 1 accurately ripped (confidence 2) [84DCE599]
Track 2 accurately ripped (confidence 2) [B6A31927]
Track 3 accurately ripped (confidence 2) [EB00EFE5]
Track 4 accurately ripped (confidence 2) [D98D8522]
Track 5 accurately ripped (confidence 2) [25094839]
Track 6 accurately ripped (confidence 2) [99FB4B67]
Track 7 accurately ripped (confidence 2) [7C628BC0]
Track 8 cannot be verified as accurate (confidence 37) [E3229407], AccurateRip returned [C5F50373]
7 track(s) accurately ripped
1 track(s) could not be verified as accurate
Some tracks could not be verified as accurate
End of status report
==== Log checksum 66065131BCA2BFA47FB04244CEA09149BA532401341EFC55E2D36EFC0AF2F511 ====

LOG CD02:

Exact Audio Copy V1.0 beta 1 from 15. November 2010
EAC extraction logfile from 7. April 2013, 11:44
Herbert Blomstedt & Staatskapelle Dresden / Beethoven Symphonies Complete Disc 2
Used drive : ASUS DRW-1814BL Adapter: 2 ID: 0
Read mode : Secure
Utilize accurate stream : Yes
Defeat audio cache : Yes
Make use of C2 pointers : No
Read offset correction : 6
Overread into Lead-In and Lead-Out : No
Fill up missing offset samples with silence : Yes
Delete leading and trailing silent blocks : No
Null samples used in CRC calculations : Yes
Used interface : Native Win32 interface for Win NT & 2000
Used output format : User Defined Encoder
Selected bitrate : 320 kBit/s
Quality : High
Add ID3 tag : No
Command line compressor : C:\Program Files\Exact Audio Copy\FLAC\FLAC.EXE
Additional command line options : -V -8 -T "artist=%a" -T "title=%t" -T "album=%g" -T "date=%y" -T "tracknumber=%n" -T "genre=%m" %s
TOC of the extracted CD
Track | Start | Length | Start sector | End sector
---------------------------------------------------------
1 | 0:00.00 | 13:05.67 | 0 | 58941
2 | 13:05.67 | 12:33.73 | 58942 | 115489
3 | 25:39.65 | 4:06.55 | 115490 | 133994
4 | 29:46.45 | 6:53.55 | 133995 | 165024
5 | 36:40.25 | 12:09.40 | 165025 | 219739
6 | 48:49.65 | 10:31.62 | 219740 | 267126
7 | 59:21.52 | 5:50.70 | 267127 | 293446
8 | 65:12.47 | 7:10.58 | 293447 | 325754
Range status and errors
Selected range
Filename G:\MUSIC COPIES\Beethoven - Blomstedt\CD2\Herbert Blomstedt & Staatskapelle Dresden - Beethoven Symphonies Complete Disc 2.wav
Peak level 98.0 %
Extraction speed 0.4 X
Range quality 99.9 %
Test CRC C75EEEB4
Copy CRC C75EEEB4
Copy OK
No errors occurred
AccurateRip summary
Track 1 accurately ripped (confidence 2) [ABA09716]
Track 2 accurately ripped (confidence 2) [3DE06E5F]
Track 3 accurately ripped (confidence 2) [FF050ABF]
Track 4 accurately ripped (confidence 2) [8F0B0642]
Track 5 accurately ripped (confidence 2) [C781EA4A]
Track 6 accurately ripped (confidence 2) [D8921956]
Track 7 accurately ripped (confidence 2) [0C0A11A7]
Track 8 accurately ripped (confidence 2) [FF65C47B]
All tracks accurately ripped
End of status report
==== Log checksum 6FD6B8E2C1D11D8716BADC366B1843D286303354003ED94EE099B96C60021AC7 ====

LOG CD03:

Exact Audio Copy V1.0 beta 1 from 15. November 2010
EAC extraction logfile from 10. April 2013, 11:52
Herbert Blomstedt & Staatskapelle Dresden / Beethoven Symphonies Complete Disc 3
Used drive : ASUS DRW-1814BL Adapter: 2 ID: 0
Read mode : Secure
Utilize accurate stream : Yes
Defeat audio cache : Yes
Make use of C2 pointers : No
Read offset correction : 6
Overread into Lead-In and Lead-Out : No
Fill up missing offset samples with silence : Yes
Delete leading and trailing silent blocks : No
Null samples used in CRC calculations : Yes
Used interface : Native Win32 interface for Win NT & 2000
Used output format : User Defined Encoder
Selected bitrate : 320 kBit/s
Quality : High
Add ID3 tag : No
Command line compressor : C:\Program Files\Exact Audio Copy\FLAC\FLAC.EXE
Additional command line options : -V -8 -T "artist=%a" -T "title=%t" -T "album=%g" -T "date=%y" -T "tracknumber=%n" -T "genre=%m" %s
TOC of the extracted CD
Track | Start | Length | Start sector | End sector
---------------------------------------------------------
1 | 0:00.00 | 8:05.37 | 0 | 36411
2 | 8:05.37 | 11:21.50 | 36412 | 87536
3 | 19:27.12 | 8:53.23 | 87537 | 127534
4 | 28:20.35 | 9:02.67 | 127535 | 168251
5 | 37:23.27 | 9:31.33 | 168252 | 211109
6 | 46:54.60 | 12:40.62 | 211110 | 268171
7 | 59:35.47 | 5:44.25 | 268172 | 293996
8 | 65:19.72 | 3:42.50 | 293997 | 310696
9 | 69:02.47 | 9:51.10 | 310697 | 355031
Range status and errors
Selected range
Filename H:\MUSIC COPIES\Beethoven - Blomstedt\CD3\Herbert Blomstedt & Staatskapelle Dresden - Beethoven Symphonies Complete Disc 3.wav
Peak level 98.0 %
Extraction speed 1.2 X
Range quality 100.0 %
Test CRC B59243C9
Copy CRC B59243C9
Copy OK
No errors occurred
AccurateRip summary
Track 1 accurately ripped (confidence 6) [A392A651]
Track 2 accurately ripped (confidence 6) [DECE8949]
Track 3 accurately ripped (confidence 6) [73DEB0D4]
Track 4 accurately ripped (confidence 6) [7F643893]
Track 5 accurately ripped (confidence 6) [A51530C3]
Track 6 accurately ripped (confidence 6) [CF6BA3DC]
Track 7 accurately ripped (confidence 6) [E2A43BC9]
Track 8 accurately ripped (confidence 6) [D7590631]
Track 9 accurately ripped (confidence 5) [38BE8980]
All tracks accurately ripped
End of status report
==== Log checksum D32344E1810B98F91BCA80B8AB46B600FB8B569FF1AB8691D6CD5A45492BAC7B ====

LOG CD04:

Exact Audio Copy V1.0 beta 1 from 15. November 2010
EAC extraction logfile from 10. April 2013, 12:26
Herbert Blomstedt & Staatskapelle Dresden / Beethoven Symphonies Complete Disc 4
Used drive : ASUS DRW-1814BL Adapter: 2 ID: 0
Read mode : Secure
Utilize accurate stream : Yes
Defeat audio cache : Yes
Make use of C2 pointers : No
Read offset correction : 6
Overread into Lead-In and Lead-Out : No
Fill up missing offset samples with silence : Yes
Delete leading and trailing silent blocks : No
Null samples used in CRC calculations : Yes
Used interface : Native Win32 interface for Win NT & 2000
Used output format : User Defined Encoder
Selected bitrate : 320 kBit/s
Quality : High
Add ID3 tag : No
Command line compressor : C:\Program Files\Exact Audio Copy\FLAC\FLAC.EXE
Additional command line options : -V -8 -T "artist=%a" -T "title=%t" -T "album=%g" -T "date=%y" -T "tracknumber=%n" -T "genre=%m" %s
TOC of the extracted CD
Track | Start | Length | Start sector | End sector
---------------------------------------------------------
1 | 0:00.00 | 13:31.32 | 0 | 60856
2 | 13:31.32 | 9:57.48 | 60857 | 105679
3 | 23:29.05 | 9:44.72 | 105680 | 149551
4 | 33:14.02 | 9:13.05 | 149552 | 191031
5 | 42:27.07 | 10:02.33 | 191032 | 236214
6 | 52:29.40 | 3:56.45 | 236215 | 253959
7 | 56:26.10 | 4:47.25 | 253960 | 275509
8 | 61:13.35 | 7:50.45 | 275510 | 310804
Range status and errors
Selected range
Filename H:\MUSIC COPIES\Beethoven - Blomstedt\CD4\Herbert Blomstedt & Staatskapelle Dresden - Beethoven Symphonies Complete Disc 4.wav
Peak level 98.0 %
Extraction speed 0.5 X
Range quality 100.0 %
Test CRC 5FC46B27
Copy CRC 5FC46B27
Copy OK
No errors occurred
AccurateRip summary
Track 1 cannot be verified as accurate (confidence 31) [B790EBA2], AccurateRip returned [12EF95DD]
Track 2 cannot be verified as accurate (confidence 32) [B6CAD050], AccurateRip returned [A37E9A4A]
Track 3 cannot be verified as accurate (confidence 32) [66B2DB5E], AccurateRip returned [7F597B3D]
Track 4 cannot be verified as accurate (confidence 32) [35219295], AccurateRip returned [DFF11341]
Track 5 cannot be verified as accurate (confidence 32) [F9191E35], AccurateRip returned [36066746]
Track 6 cannot be verified as accurate (confidence 32) [1F4E848F], AccurateRip returned [90E9865E]
Track 7 cannot be verified as accurate (confidence 31) [45FDB5AC], AccurateRip returned [B2B3EB5B]
Track 8 cannot be verified as accurate (confidence 26) [4D325C6E], AccurateRip returned [A9DD878B]
No tracks could be verified as accurate
You may have a different pressing from the one(s) in the database
End of status report
==== Log checksum B0F03A74DC3FF970EBFA14CB239A3F5EF1BE9E116217C477F5CC19430C4B3690 ====

LOG CD05:

Exact Audio Copy V1.0 beta 1 from 15. November 2010
EAC extraction logfile from 10. April 2013, 13:06
Staatskapelle Dresden, Herbert Blomstedt / Beethoven Symphonies Complete Disc 5
Used drive : ASUS DRW-1814BL Adapter: 2 ID: 0
Read mode : Secure
Utilize accurate stream : Yes
Defeat audio cache : Yes
Make use of C2 pointers : No
Read offset correction : 6
Overread into Lead-In and Lead-Out : No
Fill up missing offset samples with silence : Yes
Delete leading and trailing silent blocks : No
Null samples used in CRC calculations : Yes
Used interface : Native Win32 interface for Win NT & 2000
Used output format : User Defined Encoder
Selected bitrate : 320 kBit/s
Quality : High
Add ID3 tag : No
Command line compressor : C:\Program Files\Exact Audio Copy\FLAC\FLAC.EXE
Additional command line options : -V -8 -T "artist=%a" -T "title=%t" -T "album=%g" -T "date=%y" -T "tracknumber=%n" -T "genre=%m" %s
TOC of the extracted CD
Track | Start | Length | Start sector | End sector
---------------------------------------------------------
1 | 0:00.00 | 16:55.00 | 0 | 76124
2 | 16:55.00 | 13:47.67 | 76125 | 138216
3 | 30:42.67 | 16:24.53 | 138217 | 212069
4 | 47:07.45 | 25:09.22 | 212070 | 325266
Range status and errors
Selected range
Filename H:\MUSIC COPIES\Beethoven - Blomstedt\CD5\Staatskapelle Dresden, Herbert Blomstedt - Beethoven Symphonies Complete Disc 5.wav
Peak level 98.1 %
Extraction speed 3.2 X
Range quality 99.9 %
Test CRC BBC63434
Copy CRC BBC63434
Copy OK
No errors occurred
AccurateRip summary
Track 1 cannot be verified as accurate (confidence 33) [9CFFD9F7], AccurateRip returned [92F0CA99]
Track 2 cannot be verified as accurate (confidence 34) [A059180A], AccurateRip returned [1F1FD064]
Track 3 cannot be verified as accurate (confidence 33) [ECBAA510], AccurateRip returned [E7FD21EC]
Track 4 cannot be verified as accurate (confidence 32) [CBFEF02C], AccurateRip returned [FAC2042C]
No tracks could be verified as accurate
You may have a different pressing from the one(s) in the database
End of status report
==== Log checksum 8FFA3A2BA588CEDDED4F546B6AB18E082E59EA882B85C5BDB3330509DBBFBCB9 ====



Показать сообщения:    

Текущее время: 07-Дек 21:22

Часовой пояс: UTC + 3


Вы не можете начинать темы
Вы не можете отвечать на сообщения
Вы не можете редактировать свои сообщения
Вы не можете удалять свои сообщения
Вы не можете голосовать в опросах
Вы не можете прикреплять файлы к сообщениям
Вы не можете скачивать файлы