Три плюс два. Версия курортного романа (Иван Цыбин, Андрей Луков) [2014, Документальный, кинематограф, HDTVRip-AVC]


Статистика раздачи [Обновить пиров]
Размер:  1.12 GB   |    Зарегистрирован:  8 месяцев 21 день   |    Скачан:  0 раз

Полного источника не было: Никогда

 
   
 
 
 

[Цитировать]

Три плюс два. Версия курортного романа
Дата/Год выпуска: 2014
Страна: Россия
Жанр: Документальный. кинематограф
Продолжительность: 00:51:58
Перевод: Не требуется
Русские субтитры: нет
Режиссер: Иван Цыбин, Андрей Луков
Телеканал: Первый канал HD
Описание: Документальный фильм, посвященный истории создания одного из лучших комедийных фильмов, которые были созданы в Советском Союзе. В данном документальном фильме под названием «Три плюс два. Версия курортного романа» вы узнаете всю правду о процессе создания этого шедевра кинематографии. В частности, вы узнаете, почему для Михалкова стали большой проблемой поиски актеров на главные роли. Почему в один момент все планы режиссера могли быть разрушены. А так же, как живется людям, которые сыграли главные роли в этой замечательной комедии. Стали ли они знаменитыми?
качество: HDTVRip
формат: MKV
Видео: AVC, 1024x576 (16:9), 2900 kbps, 25fps
Аудио: AC-3, 192 kbps, 48,0 kHz, 2ch

MediaInfo

Общее
Уникальный идентификатор : 214578768953336820929915286633899032610 (0xA16E5E1EAF0FBFA78655FD6A9B9B0022)
Полное имя : H:\Видео\Документальные\Три плюс два. Версия курортного романа. (2014).mkv
Формат : Matroska
Версия формата : Version 2
Размер файла : 1,12 Гбайт
Продолжительность : 51 м.
Общий поток : 3094 Кбит/сек
Дата кодирования : UTC 2015-10-06 18:50:15
Программа кодирования : mkvmerge v6.1.0 ('Old Devil') built on Mar 4 2013 09:10:42
Библиотека кодирования : libebml v1.3.0 + libmatroska v1.4.0
Видео
Идентификатор : 1
Формат : AVC
Формат/Информация : Advanced Video Codec
Профиль формата : High@L4.1
Параметр CABAC формата : Да
Параметр ReFrames формата : 4 кадра
Идентификатор кодека : V_MPEG4/ISO/AVC
Продолжительность : 51 м.
Битрейт : 2900 Кбит/сек
Ширина : 1024 пикселя
Высота : 576 пикселей
Соотношение сторон : 16:9
Режим частоты кадров : Постоянный
Частота кадров : 25,000 кадров/сек
Цветовое пространство : YUV
Субдискретизация насыщенности : 4:2:0
Битовая глубина : 8 бит
Тип развёртки : Прогрессивная
Бит/(Пиксели*Кадры) : 0.197
Размер потока : 1,03 Гбайт (92%)
Библиотека кодирования : x264 core 130 r2273 b3065e6
Настройки программы : cabac=1 / ref=4 / deblock=1:-2:-1 / analyse=0x3:0x113 / me=umh / subme=10 / psy=1 / psy_rd=1.00:0.20 / mixed_ref=1 / me_range=24 / chroma_me=1 / trellis=2 / 8x8dct=1 / cqm=0 / deadzone=21,11 / fast_pskip=0 / chroma_qp_offset=-3 / threads=6 / lookahead_threads=1 / sliced_threads=0 / nr=0 / decimate=1 / interlaced=0 / bluray_compat=0 / constrained_intra=0 / bframes=6 / b_pyramid=2 / b_adapt=2 / b_bias=0 / direct=3 / weightb=1 / open_gop=0 / weightp=2 / keyint=250 / keyint_min=25 / scenecut=40 / intra_refresh=0 / rc_lookahead=60 / rc=2pass / mbtree=1 / bitrate=2900 / ratetol=1.0 / qcomp=0.60 / qpmin=0 / qpmax=69 / qpstep=4 / cplxblur=20.0 / qblur=0.5 / vbv_maxrate=50000 / vbv_bufsize=50000 / nal_hrd=none / ip_ratio=1.40 / aq=1:1.00
Default : Да
Forced : Нет
Аудио
Идентификатор : 2
Формат : AC-3
Формат/Информация : Audio Coding 3
Расширение режима : CM (complete main)
Параметр Endianness формата : Big
Идентификатор кодека : A_AC3
Продолжительность : 51 м.
Вид битрейта : Постоянный
Битрейт : 192 Кбит/сек
Каналы : 2 канала
Расположение каналов : Front: L R
Частота : 48,0 КГц
Метод сжатия : С потерями
Размер потока : 71,4 Мбайт (6%)
Default : Да
Forced : Нет

Скриншоты

[teatrix.ru].t22417.torrent 
Торрент: Зарегистрирован [ 2016-03-20 12:34 ] · 94474F5A3B497C1E491C095A80EEBB71601E0835

Скачать .torrent

Скачать

12 KB

Статус: проверено
Скачан: 0 раз
Размер: 1.12 GB
terms.php



Показать сообщения:    

Текущее время: 10-Дек 13:53

Часовой пояс: UTC + 3


Вы не можете начинать темы
Вы не можете отвечать на сообщения
Вы не можете редактировать свои сообщения
Вы не можете удалять свои сообщения
Вы не можете голосовать в опросах
Вы не можете прикреплять файлы к сообщениям
Вы можете скачивать файлы