(Classical) Franz Schubert - String Quartets D112, D353; Overture D470 - Diogenes Quartet - 2013, FLAC (image+.cue) lossless


 

[Цитировать]

Franz Schubert - String Quartets D112, D353; Overture D470 - Diogenes Quartet
Жанр: Classical
Год издания диска: 2013
Издатель (лейбл): Brilliant Classics
Номер по каталогу: 94462
Дата записи: 2012
Аудиокодек: FLAC
Тип рипа: image+.cue
Битрейт аудио: lossless
Продолжительность: 59:26
Источник: собственный рип
Наличие сканов в содержимом раздачи: да
Треклист:
Franz Schubert (1797-1828)
[1] Overture in B flat major, D470 (fragment completed by Christian Starke)
[2]-[5] String Quartet in B flat major, D112
[6]-[9] String Quartet in E major, D353
Исполнители:
Diogenes Quartet
Stefan Kirpal violin
Gundula Kirpal violin
Julia Barthel viola
Stephen Ristau cello

Лог создания рипа

Exact Audio Copy V1.0 beta 3 from 29. August 2011
EAC extraction logfile from 16. March 2015, 21:43
Diogenes Quartet / Schubert - Complete String Quartets, Vol.2
Used drive : HL-DT-STDVDRAM GU70N Adapter: 0 ID: 0
Read mode : Secure
Utilize accurate stream : Yes
Defeat audio cache : Yes
Make use of C2 pointers : No
Read offset correction : 48
Overread into Lead-In and Lead-Out : No
Fill up missing offset samples with silence : Yes
Delete leading and trailing silent blocks : No
Null samples used in CRC calculations : Yes
Used interface : Native Win32 interface for Win NT & 2000
Used output format : User Defined Encoder
Selected bitrate : 128 kBit/s
Quality : High
Add ID3 tag : No
Command line compressor : C:\Program Files (x86)\Exact Audio Copy\Flac\flac.exe
Additional command line options : -V -8 -T "Date=%year%" -T "Genre=%genre%" %source%
TOC of the extracted CD
Track | Start | Length | Start sector | End sector
---------------------------------------------------------
1 | 0:00.00 | 6:20.01 | 0 | 28500
2 | 6:20.01 | 12:42.71 | 28501 | 85721
3 | 19:02.72 | 8:45.26 | 85722 | 125122
4 | 27:48.23 | 5:04.02 | 125123 | 147924
5 | 32:52.25 | 5:08.53 | 147925 | 171077
6 | 38:01.03 | 7:12.56 | 171078 | 203533
7 | 45:13.59 | 5:24.47 | 203534 | 227880
8 | 50:38.31 | 3:25.06 | 227881 | 243261
9 | 54:03.37 | 5:22.39 | 243262 | 267450
Range status and errors
Selected range
Filename C:\temp\Schubert - Complete String Quartets, Vol.2 - Diogenes Quartet\Schubert - Complete String Quartets, Vol.2.wav
Peak level 95.8 %
Extraction speed 2.1 X
Range quality 99.9 %
Test CRC B95D59D4
Copy CRC B95D59D4
Copy OK
No errors occurred
AccurateRip summary
Track 1 not present in database
Track 2 not present in database
Track 3 not present in database
Track 4 not present in database
Track 5 not present in database
Track 6 not present in database
Track 7 not present in database
Track 8 not present in database
Track 9 not present in database
None of the tracks are present in the AccurateRip database
End of status report
==== Log checksum 88C764AB74487163D9F60695DCDDD85AFA720727BDD10DBDB1A43A40DFDCEF09 ====



Показать сообщения:    

Текущее время: 07-Дек 19:19

Часовой пояс: UTC + 3


Вы не можете начинать темы
Вы не можете отвечать на сообщения
Вы не можете редактировать свои сообщения
Вы не можете удалять свои сообщения
Вы не можете голосовать в опросах
Вы не можете прикреплять файлы к сообщениям
Вы не можете скачивать файлы