(Opera) Verdi - La forza del Destino (Panghe, Herlea, Spiess, Slatinaru - Romanian Radio/TV Choir - Studio Symphony Orchestra, Litvin) - 1998, APE (image+.cue) lossless


 

[Цитировать]

Giuseppe Verdi - La forza del Destino
Жанр: Opera
Страна-производитель диска: Czech Republic
Год издания диска: 1998
Издатель (лейбл): Gramofonove zavody Lodenice
Номер по каталогу: L1 0398-2 602
Дата записи: 1972
Аудиокодек: APE
Тип рипа: image+.cue
Битрейт аудио: lossless
Продолжительность: 79'53+79'39
Источник: собственный рип
Наличие сканов в содержимом раздачи: да
Треклист:

CD1

1. Overture
2. Act 1. Buona notte, mia figlia
3. Act 1. Ah! per sempre, o mio bell'angiol
4. Act 1. Vil seddutor! Infame figlia!
5. Act 2. Holà! Holà! Holà!
6. Act 2. Viva la guerra!
7. Act 2. Padre Eterno, Signor
8. Act 2. Poich'è imbere l'incognito
9. Act 2. Son giunta! Grazie, o Dio!
10. Act 2. Chi siete? Chiedo il Superiore
11. Act 2. Chi mi cerca? Son io
12. Act 2. Or siam soli - Leonora de Vargas
13. Act 2. È fermo il voto?
14. Act 2. Intermezzo / Il santo nome di Dio Signore
15. Act 2. La Vergine degli angeli

CD2

1. Act 3. Attenti al gioco, attenti
2. Act 3. Intermezzo / La vita e inferno all'infelice
3. Act 3. O tu che in seno agli angeli
4. Act 3. Al tradimento! Muoia!
5. Act 3. Solenne in quest'ora
6. Act 3. Morir! tremenda cosa!
7. Act 3. Urna fatale del mio destino
8. Act 3. Lorché pifferi e tamburi
9. Act 3. Quo vivandiere, un sorso
10. Act 3. A buon mercato chi vuol comprare
11. Act 3. Nella guerra è la follia
12. Act 3. Rataplan, rataplan della gloria
13. Act 4. Fate la carità!
14. Act 4. Ouf! Pazienza non v'ha che basti!
15. Act 4. Invano Alvaro ti celasti al mondo
16. Act 4. Le minaccie, i fieri accenti
17. Act 4. Pace, pace, mio Dio!
18. Act 4. Io muoio! Confessione!
19. Act 4. Temerari, del ciel l'ira fuggite!
20. Act 4. Non imprecare; umiliati
Исполнители:
Giuseppe Verdi - La forza del Destino
Marquis di Calatrava - Mihai Panghe (Bass)
Donna Leonora - Maria-Nistor Slatinaru (Soprano)
Don Carlos - Nicolae Herlea (Baritone)
Don Alvaro - Ludovic Spiess (Tenor)
Father Guardiano - Nicolae Florei (Bass)
Friar Melitone - Constantin Gabor (Bass)
Preziosilla - Zenaida Pally (Mezzo Soprano)
Romanian Radio/TV Chorus
Studio Symphony Orchestra
Carol Litvin

Лог создания рипа

CD1

Exact Audio Copy V1.0 beta 6 from 9. April 2015
EAC extraction logfile from 6. October 2015, 18:15
Panghe_Slatinaru_Herlea_Spiess_Romanian_RTV_Choir_Studio_SO_Litvin / Verdi - La forza del Destino, Litvin CD1
Used drive : TSSTcorpCDDVDW SE-208AB Adapter: 1 ID: 1
Read mode : Secure
Utilize accurate stream : Yes
Defeat audio cache : Yes
Make use of C2 pointers : No
Read offset correction : 6
Overread into Lead-In and Lead-Out : No
Fill up missing offset samples with silence : Yes
Delete leading and trailing silent blocks : No
Null samples used in CRC calculations : Yes
Used interface : Native Win32 interface for Win NT & 2000
Used output format : Monkey's Audio Lossless Encoder
Selected bitrate : High Lossless Compression
Quality : High
Add ID3 tag : Yes
Command line compressor : C:\Program Files (x86)\Exact Audio Copy\MAC\MAC.exe
TOC of the extracted CD
Track | Start | Length | Start sector | End sector
---------------------------------------------------------
1 | 0:00.00 | 8:11.12 | 0 | 36836
2 | 8:11.12 | 7:55.13 | 36837 | 72474
3 | 16:06.25 | 7:15.00 | 72475 | 105099
4 | 23:21.25 | 2:30.10 | 105100 | 116359
5 | 25:51.35 | 2:57.63 | 116360 | 129697
6 | 28:49.23 | 4:47.69 | 129698 | 151291
7 | 33:37.17 | 5:54.56 | 151292 | 177897
8 | 39:31.73 | 7:47.02 | 177898 | 212924
9 | 47:19.00 | 6:33.40 | 212925 | 242439
10 | 53:52.40 | 2:05.39 | 242440 | 251853
11 | 55:58.04 | 0:58.30 | 251854 | 256233
12 | 56:56.34 | 7:43.60 | 256234 | 291018
13 | 64:40.19 | 4:15.41 | 291019 | 310184
14 | 68:55.60 | 7:44.17 | 310185 | 345001
15 | 76:40.02 | 3:11.30 | 345002 | 359356
Range status and errors
Selected range
Filename D:\EAC\Verdi - La forza del Destino, Litvin CD1.wav
Peak level 99.9 %
Extraction speed 2.2 X
Range quality 99.9 %
Test CRC 38317792
Copy CRC 38317792
Copy OK
No errors occurred
AccurateRip summary
Track 1 accurately ripped (confidence 2) [D95826A6] (AR v1)
Track 2 accurately ripped (confidence 3) [1FB68043] (AR v1)
Track 3 accurately ripped (confidence 3) [621464AA] (AR v1)
Track 4 accurately ripped (confidence 3) [0EC7DC10] (AR v1)
Track 5 accurately ripped (confidence 3) [5FE09EAD] (AR v1)
Track 6 accurately ripped (confidence 3) [D7E37A36] (AR v1)
Track 7 accurately ripped (confidence 3) [F7B1F9B6] (AR v1)
Track 8 accurately ripped (confidence 3) [BEC30B54] (AR v1)
Track 9 accurately ripped (confidence 3) [5EEFC2ED] (AR v1)
Track 10 accurately ripped (confidence 3) [A8F9BA00] (AR v1)
Track 11 accurately ripped (confidence 3) [9715174C] (AR v1)
Track 12 accurately ripped (confidence 2) [78B2AFF0] (AR v1)
Track 13 accurately ripped (confidence 3) [295013F0] (AR v1)
Track 14 accurately ripped (confidence 3) [959B6779] (AR v1)
Track 15 accurately ripped (confidence 3) [C6BBAC02] (AR v1)
All tracks accurately ripped
End of status report
---- CUETools DB Plugin V2.1.6
[CTDB TOCID: BACIec0DJ78QgK9XQZpfu9SWhGU-] disk not present in database
Submit result: BACIec0DJ78QgK9XQZpfu9SWhGU- has been uploaded
==== Log checksum 77206B0A756E3079A7FB5A87B4CE17A28D446BF2F6C05CB775D379601DBB3242 ====

CD2

Exact Audio Copy V1.0 beta 6 from 9. April 2015
EAC extraction logfile from 6. October 2015, 17:53
Panghe_Slatinaru_Herlea_Spiess_Romanian_RTV_Choir_Studio_SO_Litvin / Verdi - La forza del Destino, Litvin CD2
Used drive : TS8XDVDSTRANSCEND Adapter: 1 ID: 2
Read mode : Secure
Utilize accurate stream : Yes
Defeat audio cache : Yes
Make use of C2 pointers : No
Read offset correction : 6
Overread into Lead-In and Lead-Out : No
Fill up missing offset samples with silence : Yes
Delete leading and trailing silent blocks : No
Null samples used in CRC calculations : Yes
Used interface : Native Win32 interface for Win NT & 2000
Used output format : Monkey's Audio Lossless Encoder
Selected bitrate : High Lossless Compression
Quality : High
Add ID3 tag : Yes
Command line compressor : C:\Program Files (x86)\Exact Audio Copy\MAC\MAC.exe
TOC of the extracted CD
Track | Start | Length | Start sector | End sector
---------------------------------------------------------
1 | 0:00.00 | 0:55.05 | 0 | 4129
2 | 0:55.05 | 6:04.32 | 4130 | 31461
3 | 6:59.37 | 2:57.35 | 31462 | 44771
4 | 9:56.72 | 7:06.35 | 44772 | 76756
5 | 17:03.32 | 4:19.34 | 76757 | 96215
6 | 21:22.66 | 2:13.33 | 96216 | 106223
7 | 23:36.24 | 6:04.54 | 106224 | 133577
8 | 29:41.03 | 2:57.27 | 133578 | 146879
9 | 32:38.30 | 1:02.54 | 146880 | 151583
10 | 33:41.09 | 2:33.22 | 151584 | 163080
11 | 36:14.31 | 2:36.56 | 163081 | 174836
12 | 38:51.12 | 3:16.48 | 174837 | 189584
13 | 42:07.60 | 7:25.41 | 189585 | 223000
14 | 49:33.26 | 5:55.23 | 223001 | 249648
15 | 55:28.49 | 4:00.53 | 249649 | 267701
16 | 59:29.27 | 6:01.56 | 267702 | 294832
17 | 65:31.08 | 5:25.61 | 294833 | 319268
18 | 70:56.69 | 1:06.57 | 319269 | 324275
19 | 72:03.51 | 2:25.14 | 324276 | 335164
20 | 74:28.65 | 5:08.20 | 335165 | 358284
Range status and errors
Selected range
Filename D:\EAC\Verdi - La forza del Destino, Litvin CD2.wav
Peak level 100.0 %
Extraction speed 5.2 X
Range quality 99.9 %
Test CRC 27622792
Copy CRC 27622792
Copy OK
No errors occurred
AccurateRip summary
Track 1 accurately ripped (confidence 3) [02B9D86C] (AR v2)
Track 2 accurately ripped (confidence 3) [D4B79ECD] (AR v2)
Track 3 accurately ripped (confidence 3) [6FA4936C] (AR v2)
Track 4 accurately ripped (confidence 3) [1FA4F73B] (AR v2)
Track 5 accurately ripped (confidence 3) [AFE49E14] (AR v2)
Track 6 accurately ripped (confidence 3) [BEFA6851] (AR v2)
Track 7 accurately ripped (confidence 3) [D718F10C] (AR v2)
Track 8 accurately ripped (confidence 3) [A8CC3C73] (AR v2)
Track 9 accurately ripped (confidence 3) [4840BE74] (AR v2)
Track 10 accurately ripped (confidence 3) [06982452] (AR v2)
Track 11 accurately ripped (confidence 3) [06354E33] (AR v2)
Track 12 accurately ripped (confidence 3) [91A77B6B] (AR v2)
Track 13 accurately ripped (confidence 3) [0148EB26] (AR v2)
Track 14 accurately ripped (confidence 3) [481D2A70] (AR v2)
Track 15 accurately ripped (confidence 3) [6BD59985] (AR v2)
Track 16 accurately ripped (confidence 3) [AA4B2604] (AR v2)
Track 17 accurately ripped (confidence 3) [F4690A82] (AR v2)
Track 18 accurately ripped (confidence 3) [9D484C64] (AR v2)
Track 19 accurately ripped (confidence 3) [F17F8B2E] (AR v2)
Track 20 accurately ripped (confidence 2) [53668EBA] (AR v2)
All tracks accurately ripped
End of status report
---- CUETools DB Plugin V2.1.6
[CTDB TOCID: l8qy.0RP7jkKwVtkJSj0QtqYPgI-] disk not present in database
Submit result: unrecognized or virtual drive
==== Log checksum AD294CD3219BF5929B90EC70000B9A21500B21BB86E2015D091346CC56630FAA ====

Содержание индексной карты (.CUE)

CD1

REM GENRE Opera
REM DATE 1972
REM DISCID CD12B70F
REM COMMENT "ExactAudioCopy v1.0b6"
CATALOG 0000000000000
PERFORMER "Panghe_Slatinaru_Herlea_Spiess_Romanian_RTV_Choir_Studio_SO_Litvin"
TITLE "Verdi - La forza del Destino, Litvin CD1"
FILE "Verdi - La forza del Destino, Litvin CD1.ape" WAVE
TRACK 01 AUDIO
TITLE "Overture"
PERFORMER "Panghe_Slatinaru_Herlea_Spiess_Romanian_RTV_Choir_Studio_SO_Litvin"
INDEX 01 00:00:00
TRACK 02 AUDIO
TITLE "Act 1. Buona notte, mia figlia"
PERFORMER "Panghe_Slatinaru_Herlea_Spiess_Romanian_RTV_Choir_Studio_SO_Litvin"
INDEX 01 08:11:12
TRACK 03 AUDIO
TITLE "Act 1. Ah! per sempre, o mio bell'angiol"
PERFORMER "Panghe_Slatinaru_Herlea_Spiess_Romanian_RTV_Choir_Studio_SO_Litvin"
INDEX 01 16:06:25
TRACK 04 AUDIO
TITLE "Act 1. Vil seddutor! Infame figlia!"
PERFORMER "Panghe_Slatinaru_Herlea_Spiess_Romanian_RTV_Choir_Studio_SO_Litvin"
INDEX 01 23:21:25
TRACK 05 AUDIO
TITLE "Act 2. Holà! Holà! Holà!"
PERFORMER "Panghe_Slatinaru_Herlea_Spiess_Romanian_RTV_Choir_Studio_SO_Litvin"
INDEX 00 25:45:11
INDEX 01 25:51:35
TRACK 06 AUDIO
TITLE "Act 2. Viva la guerra!"
PERFORMER "Panghe_Slatinaru_Herlea_Spiess_Romanian_RTV_Choir_Studio_SO_Litvin"
INDEX 01 28:49:23
TRACK 07 AUDIO
TITLE "Act 2. Padre Eterno, Signor"
PERFORMER "Panghe_Slatinaru_Herlea_Spiess_Romanian_RTV_Choir_Studio_SO_Litvin"
INDEX 01 33:37:17
TRACK 08 AUDIO
TITLE "Act 2. Poich'è imbere l'incognito"
PERFORMER "Panghe_Slatinaru_Herlea_Spiess_Romanian_RTV_Choir_Studio_SO_Litvin"
INDEX 01 39:31:73
TRACK 09 AUDIO
TITLE "Act 2. Son giunta! Grazie, o Dio!"
PERFORMER "Panghe_Slatinaru_Herlea_Spiess_Romanian_RTV_Choir_Studio_SO_Litvin"
INDEX 00 47:14:32
INDEX 01 47:19:00
TRACK 10 AUDIO
TITLE "Act 2. Chi siete? Chiedo il Superiore"
PERFORMER "Panghe_Slatinaru_Herlea_Spiess_Romanian_RTV_Choir_Studio_SO_Litvin"
INDEX 01 53:52:40
TRACK 11 AUDIO
TITLE "Act 2. Chi mi cerca? Son io"
PERFORMER "Panghe_Slatinaru_Herlea_Spiess_Romanian_RTV_Choir_Studio_SO_Litvin"
INDEX 01 55:58:04
TRACK 12 AUDIO
TITLE "Act 2. Or siam soli - Leonora di Vargas"
PERFORMER "Panghe_Slatinaru_Herlea_Spiess_Romanian_RTV_Choir_Studio_SO_Litvin"
INDEX 01 56:56:34
TRACK 13 AUDIO
TITLE "Act 2. È fermo il voto?"
PERFORMER "Panghe_Slatinaru_Herlea_Spiess_Romanian_RTV_Choir_Studio_SO_Litvin"
INDEX 01 64:40:19
TRACK 14 AUDIO
TITLE "Act 2. Intermezzo - Il santo nome di Dio Signore"
PERFORMER "Panghe_Slatinaru_Herlea_Spiess_Romanian_RTV_Choir_Studio_SO_Litvin"
INDEX 00 68:52:08
INDEX 01 68:55:60
TRACK 15 AUDIO
TITLE "Act 2. La Vergine degli angeli"
PERFORMER "Panghe_Slatinaru_Herlea_Spiess_Romanian_RTV_Choir_Studio_SO_Litvin"
INDEX 01 76:40:02

CD2

REM GENRE Opera
REM DATE 1972
REM DISCID 1A12A914
REM COMMENT "ExactAudioCopy v1.0b6"
CATALOG 0000000000000
PERFORMER "Panghe_Slatinaru_Herlea_Spiess_Romanian_RTV_Choir_Studio_SO_Litvin"
TITLE "Verdi - La forza del Destino, Litvin CD2"
FILE "Verdi - La forza del Destino, Litvin CD2.ape" WAVE
TRACK 01 AUDIO
TITLE "Act 3. Attenti Al Gioco, attenti"
PERFORMER "Panghe_Slatinaru_Herlea_Spiess_Romanian_RTV_Choir_Studio_SO_Litvin"
INDEX 01 00:00:00
TRACK 02 AUDIO
TITLE "Act 3. Intermezzo La Vita E Inferno All'infelice"
PERFORMER "Panghe_Slatinaru_Herlea_Spiess_Romanian_RTV_Choir_Studio_SO_Litvin"
INDEX 01 00:55:05
TRACK 03 AUDIO
TITLE "Act 3. O Tu Che In Seno Agli Angeli"
PERFORMER "Panghe_Slatinaru_Herlea_Spiess_Romanian_RTV_Choir_Studio_SO_Litvin"
INDEX 01 06:59:37
TRACK 04 AUDIO
TITLE "Act 3. Al Tradimento! Muoia"
PERFORMER "Panghe_Slatinaru_Herlea_Spiess_Romanian_RTV_Choir_Studio_SO_Litvin"
INDEX 01 09:56:72
TRACK 05 AUDIO
TITLE "Act 3. Solenne In Quest' Ora"
PERFORMER "Panghe_Slatinaru_Herlea_Spiess_Romanian_RTV_Choir_Studio_SO_Litvin"
INDEX 01 17:03:32
TRACK 06 AUDIO
TITLE "Act 3. Morir! Tremenda Cosa!"
PERFORMER "Panghe_Slatinaru_Herlea_Spiess_Romanian_RTV_Choir_Studio_SO_Litvin"
INDEX 01 21:22:66
TRACK 07 AUDIO
TITLE "Act 3. Urna Fatale Del Mio Destino"
PERFORMER "Panghe_Slatinaru_Herlea_Spiess_Romanian_RTV_Choir_Studio_SO_Litvin"
INDEX 01 23:36:24
TRACK 08 AUDIO
TITLE "Act 3. Lorché Pifferi E Tamburi"
PERFORMER "Panghe_Slatinaru_Herlea_Spiess_Romanian_RTV_Choir_Studio_SO_Litvin"
INDEX 00 29:37:11
INDEX 01 29:41:03
TRACK 09 AUDIO
TITLE "Act 3. Quo Vivandiere, Un Sorso"
PERFORMER "Panghe_Slatinaru_Herlea_Spiess_Romanian_RTV_Choir_Studio_SO_Litvin"
INDEX 01 32:38:30
TRACK 10 AUDIO
TITLE "Act 3. A Buon Mercato Chi Vuol Comprare"
PERFORMER "Panghe_Slatinaru_Herlea_Spiess_Romanian_RTV_Choir_Studio_SO_Litvin"
INDEX 01 33:41:09
TRACK 11 AUDIO
TITLE "Act 3. Nella Guerra É La Follia"
PERFORMER "Panghe_Slatinaru_Herlea_Spiess_Romanian_RTV_Choir_Studio_SO_Litvin"
INDEX 01 36:14:31
TRACK 12 AUDIO
TITLE "Act 3. Rataplan, Rataplan Della Gloria"
PERFORMER "Panghe_Slatinaru_Herlea_Spiess_Romanian_RTV_Choir_Studio_SO_Litvin"
INDEX 01 38:51:12
TRACK 13 AUDIO
TITLE "Act 4. Fate La Caritá!"
PERFORMER "Panghe_Slatinaru_Herlea_Spiess_Romanian_RTV_Choir_Studio_SO_Litvin"
INDEX 00 42:01:31
INDEX 01 42:07:60
TRACK 14 AUDIO
TITLE "Act 4. Ouf! Pazienza Non V'ha Che Basti!"
PERFORMER "Panghe_Slatinaru_Herlea_Spiess_Romanian_RTV_Choir_Studio_SO_Litvin"
INDEX 01 49:33:26
TRACK 15 AUDIO
TITLE "Act 4. Invano Alvaro Ti Celasti Al Mondo"
PERFORMER "Panghe_Slatinaru_Herlea_Spiess_Romanian_RTV_Choir_Studio_SO_Litvin"
INDEX 01 55:28:49
TRACK 16 AUDIO
TITLE "Act 4. Le Minaccie, I Fieri Accenti"
PERFORMER "Panghe_Slatinaru_Herlea_Spiess_Romanian_RTV_Choir_Studio_SO_Litvin"
INDEX 01 59:29:27
TRACK 17 AUDIO
TITLE "Act 4. Pace, Pace, Mio Dio!"
PERFORMER "Panghe_Slatinaru_Herlea_Spiess_Romanian_RTV_Choir_Studio_SO_Litvin"
INDEX 00 65:25:41
INDEX 01 65:31:08
TRACK 18 AUDIO
TITLE "Act 4. Io Muoio! Confessione!"
PERFORMER "Panghe_Slatinaru_Herlea_Spiess_Romanian_RTV_Choir_Studio_SO_Litvin"
INDEX 01 70:56:69
TRACK 19 AUDIO
TITLE "Act 4. Temerari, Del Ciel L'ira Fuggite!"
PERFORMER "Panghe_Slatinaru_Herlea_Spiess_Romanian_RTV_Choir_Studio_SO_Litvin"
INDEX 01 72:03:51
TRACK 20 AUDIO
TITLE "Act 4. Non Imprecare; Umiliati"
PERFORMER "Panghe_Slatinaru_Herlea_Spiess_Romanian_RTV_Choir_Studio_SO_Litvin"
INDEX 01 74:28:65



Показать сообщения:    

Текущее время: 05-Дек 05:30

Часовой пояс: UTC + 3


Вы не можете начинать темы
Вы не можете отвечать на сообщения
Вы не можете редактировать свои сообщения
Вы не можете удалять свои сообщения
Вы не можете голосовать в опросах
Вы не можете прикреплять файлы к сообщениям
Вы не можете скачивать файлы