Леонид Утесов. Только для друзей (Леонид Марягин, Алина Казьмина) [1989, Документальный фильм, DVB]


Статистика раздачи [Обновить пиров]
Размер:  1.54 GB   |    Зарегистрирован:  8 месяцев 20 дней   |    Скачан:  0 раз

Полного источника не было: Никогда

 
   
 
 
 

[Цитировать]

Леонид Утесов. Только для друзей
Дата/Год выпуска: 1989
Страна: СССР
Жанр: Документальный фильм
Продолжительность: 00:58:32
Перевод: Не требуется
Русские субтитры: нет
Оригинальная аудиодорожка: русский
Режиссер: Леонид Марягин, Алина Казьмина
Телеканал: Ретро
Описание: Леонид Утесов и воспоминания о нем друзей - видных деятелей киноискусства и артистов эстрады. Пожалуй, трудно представить человека, хоть немного знакомого с искусством ХХ века, кто бы не слышал о Леониде Утёсове. Личность Утёсова необыкновенно многогранна - он и актёр, и певец, и дирижёр, и организатор, и замечательный рассказчик. Лазарю Вайсбейну, которого советские люди знали как Леонида Утёсова, посчастливилось стать больше, чем эстрадным певцом — он стал частью жизни целых четырех поколений, а его творческая жизнь продолжалась без малого семьдесят лет. Пение Утёсова любили все, от мала до велика, включая первых лиц государства, а спетые им песни люди помнят не по именам их авторов, а как «песни Утёсова».
Доп. информация: В документальном фильме принимают участие : Леонид Утёсов, Геннадий Хазанов, Александр Ширвиндт, Зиновий Гердт, Михаил Державин, Михаил Яншин, Ростислав Плятт, Евгений Петросян, Иосиф Кобзон и другие.
Сэмпл: https://www.sendspace.com/file/1t4x6g
качество: DVB
формат: MPG
Видео: MPEG2, 720:576, (4:3), 3491 Кбит/сек, 25,000 кадров/сек, (0.337 bit/pixel)
Аудио: MP2, 192 Кбит/сек, 48,0 КГц, 2 канала

MediaInfo

Общее
Полное имя : Леонид Утесов. Только для друзей..mpg
Формат : MPEG-PS
Размер файла : 1,54 Гбайт
Продолжительность : 58 м.
Режим общего битрейта : Переменный
Общий поток : 3758 Кбит/сек
Видео
Идентификатор : 224 (0xE0)
Формат : MPEG Video
Версия формата : Version 2
Профиль формата : Main@Main
Параметр BVOP формата : Да
Параметр матрицы формата : Выборочная
Параметр GOP формата : M=3, N=12
Структура изображения : Frame
Продолжительность : 58 м.
Вид битрейта : Переменный
Битрейт : 3491 Кбит/сек
Максимальный битрейт : 10000 Кбит/сек
Ширина : 720 пикселей
Высота : 576 пикселей
Соотношение сторон : 4:3
Частота кадров : 25,000 кадров/сек
Стандарт вещания : PAL
Цветовое пространство : YUV
Субдискретизация насыщенности : 4:2:0
Битовая глубина : 8 бит
Тип развёртки : Чересстрочная
Порядок развёртки : Верхнее поле первое
Метод сжатия : С потерями
Бит/(Пиксели*Кадры) : 0.337
Временной код первого кадра : 00:00:00:00
Оригинал временного кода : Group of pictures header
GOP, открыто/закрыто : Открыто
GOP, открыто/закрыто на первом кадре : Закрыто
Размер потока : 1,43 Гбайт (93%)
Аудио
Идентификатор : 192 (0xC0)
Формат : MPEG Audio
Версия формата : Version 1
Профиль формата : Layer 2
Продолжительность : 58 м.
Вид битрейта : Постоянный
Битрейт : 192 Кбит/сек
Каналы : 2 канала
Частота : 48,0 КГц
Метод сжатия : С потерями
Задержка видео : 11 мс.
Размер потока : 80,4 Мбайт (5%)

Скриншоты

Запись потока *.ts произведена тюнером цифрового телевидения. В связи с тем, что не все плееры воспроизводят поток *.ts (MPEG-TS) , в данном видеофайле мной был сделан ремукс потока *.ts (MPEG-TS) в *.mpg (MPEG-PS) программой VideoReDo.
[teatrix.ru].t22420.torrent 
Торрент: Зарегистрирован [ 2016-03-20 12:34 ] · 8D31A4E4E4E963A201BEC4471E51CD7806C66E6C

Скачать .torrent

Скачать

16 KB

Статус: проверено
Скачан: 0 раз
Размер: 1.54 GB
terms.php



Быстрый ответ

Имя:

      
Для отправки сообщений необходимо включить JavaScript
Показать сообщения:    

Текущее время: 09-Дек 20:30

Часовой пояс: UTC + 3


Вы можете начинать темы
Вы можете отвечать на сообщения
Вы не можете редактировать свои сообщения
Вы не можете удалять свои сообщения
Вы не можете голосовать в опросах
Вы не можете прикреплять файлы к сообщениям
Вы можете скачивать файлы