(Sacred vocal) Poulenc - Stabat Mater, Gloria, Litanies a la Vierge Noire (Patricia Petibon / Choeur de l'Orchestre de Paris, Orchestre de Paris, Paavo Jarvi) - 2013, FLAC (tracks+.cue) lossless


Статистика раздачи [Обновить пиров]
Размер:  237 MB   |    Зарегистрирован:  8 месяцев 16 дней   |    Скачан:  0 раз

Полного источника не было: Никогда

 
   
 
 
 

[Цитировать]

Poulenc: Stabat Mater, Gloria, Litanies a la Vierge Noire

Жанр: Sacred vocal
Страна-производитель диска: Made in Germany?
Год издания диска: 2013
Издатель (лейбл): Deutsche Grammophon GmbH, Berlin
Номер по каталогу: 0289 479 1497 6 CD DDD GH
Дата записи: 2013
Аудиокодек: FLAC
Тип рипа: tracks+.cue
Битрейт аудио: lossless
Продолжительность: 63'48
Источник: релизер
сайт-источник/ник/другое: peotuvave, рип не его
Наличие сканов в содержимом раздачи: да
Треклист:

скрытый текст

1. Choeur de l'Orchestre de Paris, Orchestre de Paris & Paavo Järvi – I. Gloria (02:26)
2. II. Laudamus te (03:01)
3. III. Domine Deus (04:27)
4. IV. Domini Fili Unigenite (01:21)
5. V. Domine Deus, Agnus Dei (06:25)
6. VI. Qui sedes ad dexteram Patris (06:17)
7. Choeur de l'Orchestre de Paris, Orchestre de Paris & Paavo Järvi – Litanies à la Vierge noire (09:12)
8. Choeur de l'Orchestre de Paris, Orchestre de Paris & Paavo Järvi – I. Stabat Mater dolorosa (03:52)
9. II. Cujus animam gementem (00:59)
10. III. O quam tristis (02:41)
11. IV. Quae moerebat (01:29)
12. V. Quis est homo (01:22)
13. VI. Vidit suum (03:23)
14. VII. Eja mater (01:09)
15. VIII. Fac ut ardeat (02:27)
16. IX. Sancta mater (03:08)
17. X. Fac ut portem (03:54)
18. XI. Inflammatus et accensus (01:57)
19. XII. Quando corpus (04:28)
Исполнители:

скрытый текст

Francis Poulenc (1899 - 1963)
Stabat Mater, Gloria, Litanies a la Vierge Noire
Patricia Petibon, soprano
Orchestre de Paris, Orchestre de Paris Chorus
Paavo Järvi, conductor
Recording: Salle Pleyel, Paris, 9/2012 & 3/2013
Int. Release 15 Nov. 2013

Лог создания рипа

X Lossless Decoder version 20140504 (147.0)
XLD extraction logfile from 2014-12-05 09:29:24 -0600
Patricia Petibon, Chœur de l'Orchestre de Paris, Orchestre de Paris, Paavo Järvi / Stabat Mater; Gloria; Litanies à la Vierge noire
Used drive : MATSHITA DVD-R UJ-8A8 (revision HB14)
Media type : Pressed CD
Ripper mode : XLD Secure Ripper
Disable audio cache : OK for the drive with a cache less than 1375KiB
Make use of C2 pointers : NO
Read offset correction : 102
Max retry count : 20
Gap status : Analyzed, Appended (except HTOA)
TOC of the extracted CD
Track | Start | Length | Start sector | End sector
---------------------------------------------------------
1 | 00:00:00 | 02:26:26 | 0 | 10975
2 | 02:26:26 | 03:01:54 | 10976 | 24604
3 | 05:28:05 | 04:27:35 | 24605 | 44664
4 | 09:55:40 | 01:21:37 | 44665 | 50776
5 | 11:17:02 | 06:25:17 | 50777 | 79668
6 | 17:42:19 | 06:17:17 | 79669 | 107960
7 | 23:59:36 | 09:12:33 | 107961 | 149393
8 | 33:11:69 | 03:52:52 | 149394 | 166845
9 | 37:04:46 | 00:59:65 | 166846 | 171335
10 | 38:04:36 | 02:41:73 | 171336 | 183483
11 | 40:46:34 | 01:29:31 | 183484 | 190189
12 | 42:15:65 | 01:22:09 | 190190 | 196348
13 | 43:37:74 | 03:23:27 | 196349 | 211600
14 | 47:01:26 | 01:09:64 | 211601 | 216839
15 | 48:11:15 | 02:27:25 | 216840 | 227889
16 | 50:38:40 | 03:08:72 | 227890 | 242061
17 | 53:47:37 | 03:54:47 | 242062 | 259658
18 | 57:42:09 | 01:57:61 | 259659 | 268494
19 | 59:39:70 | 04:28:69 | 268495 | 288663
AccurateRip Summary (DiscID: 002f2c07-028943a0-1d0f0813)
Track 01 : OK (v2, confidence 13/13)
Track 02 : OK (v2, confidence 13/13)
Track 03 : OK (v2, confidence 13/13)
Track 04 : OK (v2, confidence 13/13)
Track 05 : OK (v2, confidence 13/13)
Track 06 : OK (v2, confidence 13/13)
Track 07 : OK (v2, confidence 13/13)
Track 08 : OK (v2, confidence 13/13)
Track 09 : OK (v2, confidence 13/13)
Track 10 : OK (v2, confidence 13/13)
Track 11 : OK (v2, confidence 13/13)
Track 12 : OK (v2, confidence 13/13)
Track 13 : OK (v2, confidence 13/13)
Track 14 : OK (v2, confidence 13/13)
Track 15 : OK (v2, confidence 13/13)
Track 16 : OK (v2, confidence 13/13)
Track 17 : OK (v2, confidence 13/13)
Track 18 : OK (v2, confidence 13/13)
Track 19 : OK (v2, confidence 13/13)
->All tracks accurately ripped.
All Tracks
Album gain : 1.60 dB
Peak : 0.973145
Statistics
Read error : 0
Jitter error (maybe fixed) : 0
Retry sector count : 0
Damaged sector count : 0
Track 01
Filename : /Volumes/MyBook/Francis Poulenc - Stabat Mater; Gloria; Litanies à la Vierge noire (2013) [FLAC]/01 Gloria - I. Gloria in excelsis Deo.flac
Pre-gap length : 00:02:00
Track gain : -0.80 dB
Peak : 0.939240
CRC32 hash (test run) : 64BD54A5
CRC32 hash : 64BD54A5
CRC32 hash (skip zero) : 18E85CD4
AccurateRip v1 signature : 76FC242C
AccurateRip v2 signature : 7CAC984C
->Accurately ripped (v2, confidence 13/13)
Statistics
Read error : 0
Jitter error (maybe fixed) : 0
Retry sector count : 0
Damaged sector count : 0
Track 02
Filename : /Volumes/MyBook/Francis Poulenc - Stabat Mater; Gloria; Litanies à la Vierge noire (2013) [FLAC]/02 Gloria - II. Laudamus te.flac
Track gain : 1.76 dB
Peak : 0.956970
CRC32 hash (test run) : B8E9D47A
CRC32 hash : B8E9D47A
CRC32 hash (skip zero) : FB185725
AccurateRip v1 signature : 9A9D1F6E
AccurateRip v2 signature : 5FA3A60B
->Accurately ripped (v2, confidence 13/13)
Statistics
Read error : 0
Jitter error (maybe fixed) : 0
Retry sector count : 0
Damaged sector count : 0
Track 03
Filename : /Volumes/MyBook/Francis Poulenc - Stabat Mater; Gloria; Litanies à la Vierge noire (2013) [FLAC]/03 Gloria - III. Domine Deus, Rex coelestis.flac
Track gain : 5.39 dB
Peak : 0.507568
CRC32 hash (test run) : 2972DD69
CRC32 hash : 2972DD69
CRC32 hash (skip zero) : 581379BD
AccurateRip v1 signature : 8C1FBD24
AccurateRip v2 signature : 385FB080
->Accurately ripped (v2, confidence 13/13)
Statistics
Read error : 0
Jitter error (maybe fixed) : 0
Retry sector count : 0
Damaged sector count : 0
Track 04
Filename : /Volumes/MyBook/Francis Poulenc - Stabat Mater; Gloria; Litanies à la Vierge noire (2013) [FLAC]/04 Gloria - IV. Domine Fili, Domine Deus.flac
Track gain : 1.40 dB
Peak : 0.832703
CRC32 hash (test run) : 1289DA50
CRC32 hash : 1289DA50
CRC32 hash (skip zero) : 68B67170
AccurateRip v1 signature : 9F25DCE7
AccurateRip v2 signature : 7D7384D4
->Accurately ripped (v2, confidence 13/13)
Statistics
Read error : 0
Jitter error (maybe fixed) : 0
Retry sector count : 0
Damaged sector count : 0
Track 05
Filename : /Volumes/MyBook/Francis Poulenc - Stabat Mater; Gloria; Litanies à la Vierge noire (2013) [FLAC]/05 Gloria - V. Domine Deus, Agnus Dei.flac
Track gain : 5.59 dB
Peak : 0.675446
CRC32 hash (test run) : AC4885C7
CRC32 hash : AC4885C7
CRC32 hash (skip zero) : 03C06AC7
AccurateRip v1 signature : F8BF5B14
AccurateRip v2 signature : A724360B
->Accurately ripped (v2, confidence 13/13)
Statistics
Read error : 0
Jitter error (maybe fixed) : 0
Retry sector count : 0
Damaged sector count : 0
Track 06
Filename : /Volumes/MyBook/Francis Poulenc - Stabat Mater; Gloria; Litanies à la Vierge noire (2013) [FLAC]/06 Gloria - VI. Qui sedes ad dexteram Patris.flac
Track gain : -0.34 dB
Peak : 0.927124
CRC32 hash (test run) : 305118AA
CRC32 hash : 305118AA
CRC32 hash (skip zero) : 637FF2F4
AccurateRip v1 signature : D57E647E
AccurateRip v2 signature : A0A38D8C
->Accurately ripped (v2, confidence 13/13)
Statistics
Read error : 0
Jitter error (maybe fixed) : 0
Retry sector count : 0
Damaged sector count : 0
Track 07
Filename : /Volumes/MyBook/Francis Poulenc - Stabat Mater; Gloria; Litanies à la Vierge noire (2013) [FLAC]/07 Litanies à la Vierge noire.flac
Pre-gap length : 00:09:10
Track gain : 4.02 dB
Peak : 0.880310
CRC32 hash (test run) : E8B0AF35
CRC32 hash : E8B0AF35
CRC32 hash (skip zero) : A255DD9B
AccurateRip v1 signature : A505B3C6
AccurateRip v2 signature : DD7EECFF
->Accurately ripped (v2, confidence 13/13)
Statistics
Read error : 0
Jitter error (maybe fixed) : 0
Retry sector count : 0
Damaged sector count : 0
Track 08
Filename : /Volumes/MyBook/Francis Poulenc - Stabat Mater; Gloria; Litanies à la Vierge noire (2013) [FLAC]/08 Stabat Mater - I. Stabat Mater dolorosa.flac
Pre-gap length : 00:10:00
Track gain : 5.57 dB
Peak : 0.422058
CRC32 hash (test run) : 8EC178CE
CRC32 hash : 8EC178CE
CRC32 hash (skip zero) : 1FE9893F
AccurateRip v1 signature : 07124CDB
AccurateRip v2 signature : 98CE0995
->Accurately ripped (v2, confidence 13/13)
Statistics
Read error : 0
Jitter error (maybe fixed) : 0
Retry sector count : 0
Damaged sector count : 0
Track 09
Filename : /Volumes/MyBook/Francis Poulenc - Stabat Mater; Gloria; Litanies à la Vierge noire (2013) [FLAC]/09 Stabat Mater - II. Cuius animam gementem.flac
Track gain : 1.06 dB
Peak : 0.679382
CRC32 hash (test run) : 0A0FE94F
CRC32 hash : 0A0FE94F
CRC32 hash (skip zero) : 6EC98303
AccurateRip v1 signature : 509561AF
AccurateRip v2 signature : B229F9D4
->Accurately ripped (v2, confidence 13/13)
Statistics
Read error : 0
Jitter error (maybe fixed) : 0
Retry sector count : 0
Damaged sector count : 0
Track 10
Filename : /Volumes/MyBook/Francis Poulenc - Stabat Mater; Gloria; Litanies à la Vierge noire (2013) [FLAC]/10 Stabat Mater - III. O quam tristis.flac
Track gain : 6.39 dB
Peak : 0.409485
CRC32 hash (test run) : A9916108
CRC32 hash : A9916108
CRC32 hash (skip zero) : 901756EF
AccurateRip v1 signature : 9862FE4B
AccurateRip v2 signature : 79570DDF
->Accurately ripped (v2, confidence 13/13)
Statistics
Read error : 0
Jitter error (maybe fixed) : 0
Retry sector count : 0
Damaged sector count : 0
Track 11
Filename : /Volumes/MyBook/Francis Poulenc - Stabat Mater; Gloria; Litanies à la Vierge noire (2013) [FLAC]/11 Stabat Mater - IV. Quae moerebat.flac
Track gain : 8.12 dB
Peak : 0.330109
CRC32 hash (test run) : 547E27DE
CRC32 hash : 547E27DE
CRC32 hash (skip zero) : B7857AB0
AccurateRip v1 signature : 9CB196D2
AccurateRip v2 signature : BEFC7B58
->Accurately ripped (v2, confidence 13/13)
Statistics
Read error : 0
Jitter error (maybe fixed) : 0
Retry sector count : 0
Damaged sector count : 0
Track 12
Filename : /Volumes/MyBook/Francis Poulenc - Stabat Mater; Gloria; Litanies à la Vierge noire (2013) [FLAC]/12 Stabat Mater - V. Quis est homo.flac
Track gain : -3.40 dB
Peak : 0.973145
CRC32 hash (test run) : C0901AFE
CRC32 hash : C0901AFE
CRC32 hash (skip zero) : DF8090B7
AccurateRip v1 signature : 57C8DDA6
AccurateRip v2 signature : C83D610D
->Accurately ripped (v2, confidence 13/13)
Statistics
Read error : 0
Jitter error (maybe fixed) : 0
Retry sector count : 0
Damaged sector count : 0
Track 13
Filename : /Volumes/MyBook/Francis Poulenc - Stabat Mater; Gloria; Litanies à la Vierge noire (2013) [FLAC]/13 Stabat Mater - VI. Vidit suum.flac
Track gain : 5.33 dB
Peak : 0.373535
CRC32 hash (test run) : 6404C523
CRC32 hash : 6404C523
CRC32 hash (skip zero) : 8B98EBB4
AccurateRip v1 signature : E12A1182
AccurateRip v2 signature : 46DEE91E
->Accurately ripped (v2, confidence 13/13)
Statistics
Read error : 0
Jitter error (maybe fixed) : 0
Retry sector count : 0
Damaged sector count : 0
Track 14
Filename : /Volumes/MyBook/Francis Poulenc - Stabat Mater; Gloria; Litanies à la Vierge noire (2013) [FLAC]/14 Stabat Mater - VII. Eia, Mater.flac
Track gain : 2.47 dB
Peak : 0.622772
CRC32 hash (test run) : 4EF11CCE
CRC32 hash : 4EF11CCE
CRC32 hash (skip zero) : DC7851B8
AccurateRip v1 signature : AA9F04D6
AccurateRip v2 signature : 8522ABB2
->Accurately ripped (v2, confidence 13/13)
Statistics
Read error : 0
Jitter error (maybe fixed) : 0
Retry sector count : 0
Damaged sector count : 0
Track 15
Filename : /Volumes/MyBook/Francis Poulenc - Stabat Mater; Gloria; Litanies à la Vierge noire (2013) [FLAC]/15 Stabat Mater - VIII. Fac ut ardeat.flac
Track gain : 7.11 dB
Peak : 0.439423
CRC32 hash (test run) : F53974AA
CRC32 hash : F53974AA
CRC32 hash (skip zero) : CC618526
AccurateRip v1 signature : 8FAF163C
AccurateRip v2 signature : 1B8C634F
->Accurately ripped (v2, confidence 13/13)
Statistics
Read error : 0
Jitter error (maybe fixed) : 0
Retry sector count : 0
Damaged sector count : 0
Track 16
Filename : /Volumes/MyBook/Francis Poulenc - Stabat Mater; Gloria; Litanies à la Vierge noire (2013) [FLAC]/16 Stabat Mater - IX. Sancta Mater.flac
Track gain : 0.75 dB
Peak : 0.815460
CRC32 hash (test run) : 0843B357
CRC32 hash : 0843B357
CRC32 hash (skip zero) : B2DC6863
AccurateRip v1 signature : 10390C2A
AccurateRip v2 signature : C085E225
->Accurately ripped (v2, confidence 13/13)
Statistics
Read error : 0
Jitter error (maybe fixed) : 0
Retry sector count : 0
Damaged sector count : 0
Track 17
Filename : /Volumes/MyBook/Francis Poulenc - Stabat Mater; Gloria; Litanies à la Vierge noire (2013) [FLAC]/17 Stabat Mater - X. Fac ut portem.flac
Track gain : 4.14 dB
Peak : 0.622009
CRC32 hash (test run) : 95727712
CRC32 hash : 95727712
CRC32 hash (skip zero) : 38F86F7D
AccurateRip v1 signature : 52FDCB4E
AccurateRip v2 signature : D3AAF507
->Accurately ripped (v2, confidence 13/13)
Statistics
Read error : 0
Jitter error (maybe fixed) : 0
Retry sector count : 0
Damaged sector count : 0
Track 18
Filename : /Volumes/MyBook/Francis Poulenc - Stabat Mater; Gloria; Litanies à la Vierge noire (2013) [FLAC]/18 Stabat Mater - XI. Inflammatus et accensus.flac
Track gain : -2.53 dB
Peak : 0.956055
CRC32 hash (test run) : 36E938EE
CRC32 hash : 36E938EE
CRC32 hash (skip zero) : 3DC3A448
AccurateRip v1 signature : 5B1F4C0D
AccurateRip v2 signature : 6ECBC965
->Accurately ripped (v2, confidence 13/13)
Statistics
Read error : 0
Jitter error (maybe fixed) : 0
Retry sector count : 0
Damaged sector count : 0
Track 19
Filename : /Volumes/MyBook/Francis Poulenc - Stabat Mater; Gloria; Litanies à la Vierge noire (2013) [FLAC]/19 Stabat Mater - XII. Quando corpus morietur.flac
Track gain : -0.65 dB
Peak : 0.842346
CRC32 hash (test run) : EAC33E28
CRC32 hash : EAC33E28
CRC32 hash (skip zero) : 63183265
AccurateRip v1 signature : 2E3A0D62
AccurateRip v2 signature : ACFCA053
->Accurately ripped (v2, confidence 13/13)
Statistics
Read error : 0
Jitter error (maybe fixed) : 0
Retry sector count : 0
Damaged sector count : 0
No errors occurred
End of status report
-----BEGIN XLD SIGNATURE-----
g36dDqfhvoOMsfIg0.xCAPyGWc8aw3F1A1MIbSTbjeZnq67QAecj6793bcbfiZSVjmU.gAmbg9u87Pi2qD3pUODwW0VQI_7xGGXvHX8
-----END XLD SIGNATURE-----

Содержание индексной карты (.CUE)

TITLE "Stabat Mater; Gloria; Litanies à la Vierge noire"
PERFORMER "Patricia Petibon, Chœur de l'Orchestre de Paris, Orchestre de Paris, Paavo Järvi"
CATALOG 0028947914976
REM GENRE "Classical"
REM DATE "2013"
REM DISCID 1D0F0813
REM REPLAYGAIN_ALBUM_GAIN 1.60 dB
REM REPLAYGAIN_ALBUM_PEAK 0.973145
FILE "01 Gloria - I. Gloria in excelsis Deo.flac" WAVE
TRACK 01 AUDIO
TITLE "Gloria - I. Gloria in excelsis Deo"
PERFORMER "Patricia Petibon, Chœur de l'Orchestre de Paris, Orchestre de Paris, Paavo Järvi"
SONGWRITER "Francis Poulenc"
ISRC DEN961300721
REM REPLAYGAIN_TRACK_GAIN -0.80 dB
REM REPLAYGAIN_TRACK_PEAK 0.939240
INDEX 01 00:00:00
FILE "02 Gloria - II. Laudamus te.flac" WAVE
TRACK 02 AUDIO
TITLE "Gloria - II. Laudamus te"
PERFORMER "Patricia Petibon, Chœur de l'Orchestre de Paris, Orchestre de Paris, Paavo Järvi"
SONGWRITER "Francis Poulenc"
ISRC DEN961300722
REM REPLAYGAIN_TRACK_GAIN 1.76 dB
REM REPLAYGAIN_TRACK_PEAK 0.956970
INDEX 01 00:00:00
FILE "03 Gloria - III. Domine Deus, Rex coelestis.flac" WAVE
TRACK 03 AUDIO
TITLE "Gloria - III. Domine Deus, Rex coelestis"
PERFORMER "Patricia Petibon, Chœur de l'Orchestre de Paris, Orchestre de Paris, Paavo Järvi"
SONGWRITER "Francis Poulenc"
ISRC DEN961300723
REM REPLAYGAIN_TRACK_GAIN 5.39 dB
REM REPLAYGAIN_TRACK_PEAK 0.507568
INDEX 01 00:00:00
FILE "04 Gloria - IV. Domine Fili, Domine Deus.flac" WAVE
TRACK 04 AUDIO
TITLE "Gloria - IV. Domine Fili, Domine Deus"
PERFORMER "Patricia Petibon, Chœur de l'Orchestre de Paris, Orchestre de Paris, Paavo Järvi"
SONGWRITER "Francis Poulenc"
ISRC DEN961300724
REM REPLAYGAIN_TRACK_GAIN 1.40 dB
REM REPLAYGAIN_TRACK_PEAK 0.832703
INDEX 01 00:00:00
FILE "05 Gloria - V. Domine Deus, Agnus Dei.flac" WAVE
TRACK 05 AUDIO
TITLE "Gloria - V. Domine Deus, Agnus Dei"
PERFORMER "Patricia Petibon, Chœur de l'Orchestre de Paris, Orchestre de Paris, Paavo Järvi"
SONGWRITER "Francis Poulenc"
ISRC DEN961300725
REM REPLAYGAIN_TRACK_GAIN 5.59 dB
REM REPLAYGAIN_TRACK_PEAK 0.675446
INDEX 01 00:00:00
FILE "06 Gloria - VI. Qui sedes ad dexteram Patris.flac" WAVE
TRACK 06 AUDIO
TITLE "Gloria - VI. Qui sedes ad dexteram Patris"
PERFORMER "Patricia Petibon, Chœur de l'Orchestre de Paris, Orchestre de Paris, Paavo Järvi"
SONGWRITER "Francis Poulenc"
ISRC DEN961300726
REM REPLAYGAIN_TRACK_GAIN -0.34 dB
REM REPLAYGAIN_TRACK_PEAK 0.927124
INDEX 01 00:00:00
TRACK 07 AUDIO
TITLE "Litanies à la Vierge noire"
PERFORMER "Chœur de l'Orchestre de Paris, Orchestre de Paris, Paavo Järvi"
SONGWRITER "Francis Poulenc"
ISRC DEN961205120
REM REPLAYGAIN_TRACK_GAIN 4.02 dB
REM REPLAYGAIN_TRACK_PEAK 0.880310
INDEX 00 06:08:07
FILE "07 Litanies à la Vierge noire.flac" WAVE
INDEX 01 00:00:00
TRACK 08 AUDIO
TITLE "Stabat Mater - I. Stabat Mater dolorosa"
PERFORMER "Patricia Petibon, Chœur de l'Orchestre de Paris, Orchestre de Paris, Paavo Järvi"
SONGWRITER "Francis Poulenc"
ISRC DEN961231001
REM REPLAYGAIN_TRACK_GAIN 5.57 dB
REM REPLAYGAIN_TRACK_PEAK 0.422058
INDEX 00 09:02:33
FILE "08 Stabat Mater - I. Stabat Mater dolorosa.flac" WAVE
INDEX 01 00:00:00
FILE "09 Stabat Mater - II. Cuius animam gementem.flac" WAVE
TRACK 09 AUDIO
TITLE "Stabat Mater - II. Cuius animam gementem"
PERFORMER "Patricia Petibon, Chœur de l'Orchestre de Paris, Orchestre de Paris, Paavo Järvi"
SONGWRITER "Francis Poulenc"
ISRC DEN961231002
REM REPLAYGAIN_TRACK_GAIN 1.06 dB
REM REPLAYGAIN_TRACK_PEAK 0.679382
INDEX 01 00:00:00
FILE "10 Stabat Mater - III. O quam tristis.flac" WAVE
TRACK 10 AUDIO
TITLE "Stabat Mater - III. O quam tristis"
PERFORMER "Patricia Petibon, Chœur de l'Orchestre de Paris, Orchestre de Paris, Paavo Järvi"
SONGWRITER "Francis Poulenc"
ISRC DEN961231003
REM REPLAYGAIN_TRACK_GAIN 6.39 dB
REM REPLAYGAIN_TRACK_PEAK 0.409485
INDEX 01 00:00:00
FILE "11 Stabat Mater - IV. Quae moerebat.flac" WAVE
TRACK 11 AUDIO
TITLE "Stabat Mater - IV. Quae moerebat"
PERFORMER "Patricia Petibon, Chœur de l'Orchestre de Paris, Orchestre de Paris, Paavo Järvi"
SONGWRITER "Francis Poulenc"
ISRC DEN961231004
REM REPLAYGAIN_TRACK_GAIN 8.12 dB
REM REPLAYGAIN_TRACK_PEAK 0.330109
INDEX 01 00:00:00
FILE "12 Stabat Mater - V. Quis est homo.flac" WAVE
TRACK 12 AUDIO
TITLE "Stabat Mater - V. Quis est homo"
PERFORMER "Patricia Petibon, Chœur de l'Orchestre de Paris, Orchestre de Paris, Paavo Järvi"
SONGWRITER "Francis Poulenc"
ISRC DEN961231005
REM REPLAYGAIN_TRACK_GAIN -3.40 dB
REM REPLAYGAIN_TRACK_PEAK 0.973145
INDEX 01 00:00:00
FILE "13 Stabat Mater - VI. Vidit suum.flac" WAVE
TRACK 13 AUDIO
TITLE "Stabat Mater - VI. Vidit suum"
PERFORMER "Patricia Petibon, Chœur de l'Orchestre de Paris, Orchestre de Paris, Paavo Järvi"
SONGWRITER "Francis Poulenc"
ISRC DEN961231006
REM REPLAYGAIN_TRACK_GAIN 5.33 dB
REM REPLAYGAIN_TRACK_PEAK 0.373535
INDEX 01 00:00:00
FILE "14 Stabat Mater - VII. Eia, Mater.flac" WAVE
TRACK 14 AUDIO
TITLE "Stabat Mater - VII. Eia, Mater"
PERFORMER "Patricia Petibon, Chœur de l'Orchestre de Paris, Orchestre de Paris, Paavo Järvi"
SONGWRITER "Francis Poulenc"
ISRC DEN961231007
REM REPLAYGAIN_TRACK_GAIN 2.47 dB
REM REPLAYGAIN_TRACK_PEAK 0.622772
INDEX 01 00:00:00
FILE "15 Stabat Mater - VIII. Fac ut ardeat.flac" WAVE
TRACK 15 AUDIO
TITLE "Stabat Mater - VIII. Fac ut ardeat"
PERFORMER "Patricia Petibon, Chœur de l'Orchestre de Paris, Orchestre de Paris, Paavo Järvi"
SONGWRITER "Francis Poulenc"
ISRC DEN961231008
REM REPLAYGAIN_TRACK_GAIN 7.11 dB
REM REPLAYGAIN_TRACK_PEAK 0.439423
INDEX 01 00:00:00
FILE "16 Stabat Mater - IX. Sancta Mater.flac" WAVE
TRACK 16 AUDIO
TITLE "Stabat Mater - IX. Sancta Mater"
PERFORMER "Patricia Petibon, Chœur de l'Orchestre de Paris, Orchestre de Paris, Paavo Järvi"
SONGWRITER "Francis Poulenc"
ISRC DEN961231009
REM REPLAYGAIN_TRACK_GAIN 0.75 dB
REM REPLAYGAIN_TRACK_PEAK 0.815460
INDEX 01 00:00:00
FILE "17 Stabat Mater - X. Fac ut portem.flac" WAVE
TRACK 17 AUDIO
TITLE "Stabat Mater - X. Fac ut portem"
PERFORMER "Patricia Petibon, Chœur de l'Orchestre de Paris, Orchestre de Paris, Paavo Järvi"
SONGWRITER "Francis Poulenc"
ISRC DEN961231010
REM REPLAYGAIN_TRACK_GAIN 4.14 dB
REM REPLAYGAIN_TRACK_PEAK 0.622009
INDEX 01 00:00:00
FILE "18 Stabat Mater - XI. Inflammatus et accensus.flac" WAVE
TRACK 18 AUDIO
TITLE "Stabat Mater - XI. Inflammatus et accensus"
PERFORMER "Patricia Petibon, Chœur de l'Orchestre de Paris, Orchestre de Paris, Paavo Järvi"
SONGWRITER "Francis Poulenc"
ISRC DEN961231011
REM REPLAYGAIN_TRACK_GAIN -2.53 dB
REM REPLAYGAIN_TRACK_PEAK 0.956055
INDEX 01 00:00:00
FILE "19 Stabat Mater - XII. Quando corpus morietur.flac" WAVE
TRACK 19 AUDIO
TITLE "Stabat Mater - XII. Quando corpus morietur"
PERFORMER "Patricia Petibon, Chœur de l'Orchestre de Paris, Orchestre de Paris, Paavo Järvi"
SONGWRITER "Francis Poulenc"
ISRC DEN961231012
REM REPLAYGAIN_TRACK_GAIN -0.65 dB
REM REPLAYGAIN_TRACK_PEAK 0.842346
INDEX 01 00:00:00
[teatrix.ru].t22422.torrent 
Торрент: Зарегистрирован [ 2016-03-20 12:34 ] · 6A28C5FC81FFE839796E00538F78190A871F1AE9

Скачать .torrent

Скачать

21 KB

Статус: проверено
Скачан: 0 раз
Размер: 237 MB
terms.php



Быстрый ответ

Имя:

      
Для отправки сообщений необходимо включить JavaScript
Показать сообщения:    

Текущее время: 05-Дек 13:32

Часовой пояс: UTC + 3


Вы можете начинать темы
Вы можете отвечать на сообщения
Вы не можете редактировать свои сообщения
Вы не можете удалять свои сообщения
Вы не можете голосовать в опросах
Вы не можете прикреплять файлы к сообщениям
Вы можете скачивать файлы