(Classical) Johan Halvorsen - Orchestral Works, Volume 1 - Marianne Thorsen, Bergen Philharmonic Orchestra, Neeme Järvi (Jarvi) - 2010, FLAC (image+.cue) lossless


 

[Цитировать]

Johan Halvorsen - Orchestral Works, Volume 1 - Marianne Thorsen, Bergen Philharmonic Orchestra, Neeme Järvi
Жанр: Classical
Страна-производитель диска: UK
Год издания диска: 2010
Издатель (лейбл): Chandos Records
Номер по каталогу: CHAN 10584
Дата записи: 2009
Аудиокодек: FLAC
Тип рипа: image+.cue
Битрейт аудио: lossless
Продолжительность: 76:48
Источник: собственный рип
Наличие сканов в содержимом раздачи: да
Треклист:
Johan Halvorsen (1864–1935)
[1] Bojarernes Indtogsmarsch (Entry March of the Boyars)
[2] Andante religioso*
for Solo Violin and Orchestra
[3]-[11] Suite from ‘Mascarade’
[12] La Mélancolie
[13]-[16] Symphony No.1 in C minor
Исполнители:
Marianne Thorsen violin*
Bergen Philharmonic Orchestra
Neeme Järvi

Лог создания рипа

Exact Audio Copy V1.1 from 23. June 2015
EAC extraction logfile from 6. October 2015, 21:10
Bergen Philharmonic Orchestra, Neeme Järvi / Halvorsen - Orchestral Works, Vol.1
Used drive : HL-DT-STDVDRAM GU70N Adapter: 1 ID: 0
Read mode : Secure
Utilize accurate stream : Yes
Defeat audio cache : Yes
Make use of C2 pointers : No
Read offset correction : 48
Overread into Lead-In and Lead-Out : No
Fill up missing offset samples with silence : Yes
Delete leading and trailing silent blocks : No
Null samples used in CRC calculations : Yes
Used interface : Native Win32 interface for Win NT & 2000
Used output format : User Defined Encoder
Selected bitrate : 128 kBit/s
Quality : High
Add ID3 tag : No
Command line compressor : C:\Program Files (x86)\Exact Audio Copy\Flac\flac.exe
Additional command line options : -V -8 -T "Date=%year%" -T "Genre=%genre%" %source%
TOC of the extracted CD
Track | Start | Length | Start sector | End sector
---------------------------------------------------------
1 | 0:00.00 | 4:36.73 | 0 | 20772
2 | 4:36.73 | 6:04.00 | 20773 | 48072
3 | 10:40.73 | 5:35.00 | 48073 | 73197
4 | 16:15.73 | 2:21.20 | 73198 | 83792
5 | 18:37.18 | 4:14.45 | 83793 | 102887
6 | 22:51.63 | 3:41.50 | 102888 | 119512
7 | 26:33.38 | 2:42.35 | 119513 | 131697
8 | 29:15.73 | 2:34.50 | 131698 | 143297
9 | 31:50.48 | 1:03.15 | 143298 | 148037
10 | 32:53.63 | 3:37.50 | 148038 | 164362
11 | 36:31.38 | 2:14.00 | 164363 | 174412
12 | 38:45.38 | 2:35.45 | 174413 | 186082
13 | 41:21.08 | 11:55.30 | 186083 | 239737
14 | 53:16.38 | 8:23.30 | 239738 | 277492
15 | 61:39.68 | 6:42.35 | 277493 | 307677
16 | 68:22.28 | 8:26.12 | 307678 | 345639
Range status and errors
Selected range
Filename C:\temp\Halvorsen - Orchestral Works, Vol.1\Halvorsen - Orchestral Works, Vol.1.wav
Peak level 98.3 %
Extraction speed 2.3 X
Range quality 99.9 %
Test CRC 5F293FC0
Copy CRC 5F293FC0
Copy OK
No errors occurred
AccurateRip summary
Track 1 accurately ripped (confidence 4) [EAD29BDB] (AR v2)
Track 2 accurately ripped (confidence 4) [0DED32D8] (AR v2)
Track 3 accurately ripped (confidence 4) [0E96183E] (AR v2)
Track 4 accurately ripped (confidence 4) [593C15CF] (AR v2)
Track 5 accurately ripped (confidence 4) [84F55BE1] (AR v2)
Track 6 accurately ripped (confidence 4) [470A28C3] (AR v2)
Track 7 accurately ripped (confidence 4) [3D6478B0] (AR v2)
Track 8 accurately ripped (confidence 4) [2C8C95A2] (AR v2)
Track 9 accurately ripped (confidence 4) [A6A6FF60] (AR v2)
Track 10 accurately ripped (confidence 4) [1F396408] (AR v2)
Track 11 accurately ripped (confidence 4) [A2679A06] (AR v2)
Track 12 accurately ripped (confidence 4) [E1F66900] (AR v2)
Track 13 accurately ripped (confidence 4) [8310B2D0] (AR v2)
Track 14 accurately ripped (confidence 4) [F3E53D96] (AR v2)
Track 15 accurately ripped (confidence 4) [59310CC1] (AR v2)
Track 16 accurately ripped (confidence 4) [DC95B619] (AR v2)
All tracks accurately ripped
End of status report
==== Log checksum 72BF0A8C49DF22010ABF97191627935199E28FA981CF3365E08E5CC19B7C9E16 ====



Показать сообщения:    

Текущее время: 06-Дек 15:14

Часовой пояс: UTC + 3


Вы не можете начинать темы
Вы не можете отвечать на сообщения
Вы не можете редактировать свои сообщения
Вы не можете удалять свои сообщения
Вы не можете голосовать в опросах
Вы не можете прикреплять файлы к сообщениям
Вы не можете скачивать файлы