(Orchestral, Choral) Glazunov - The King of the Jews (Tsar Iudeyskiy) / Александр Константинович Глазунов - Царь Иудейский (Геннадий Рождественский, ГСО), 1991 - World Premier recording / FLAC (image+.cue), lossless


 

[Цитировать]

Александр Константинович Глазунов - Царь Иудейский
Жанр: Orchestral, Choral
Страна-производитель диска: EU
Год издания диска: 1996
Издатель (лейбл): Chandos Records
Дата записи: 1991
Аудиокодек: FLAC
Тип рипа: image+.cue
Битрейт аудио: lossless
Продолжительность: 51:55
Источник: релизер (Horacio)
Исполнители:
Gennady Rozhdestvensky, Conductor,
Russian State Symphony Orchestra & Cappella.
Recording's Date: December 1991.
Alexander Glazunov (1865-1936) had already written his famous ballets Raymonda (1896/97) and The Seasons (1899/1901) when he was requested to write incidental music for a production of Oscar Wilde's play Salomè in 1908 in St. Petersburg. This was an all-star occasion combining the talents of actress-dancer Ida Rubinstein, set and costume designer Lev Bakst, choreographer Mikhail Fokine and director Vsevolod Meyerhold.
In 1912, Glazunov was asked to write incidental music for a mystery-play with a text by the Grand Duke Konstantin Konstantinovich called The King of the Jews, which was premiered in January 9, 1914 in the Hermitage Theatre; the distinguished producer Nikolai Arbatov took charge of a mixture of amateur actors (including the author himself - Grand Duke) and professionals; and Mikhail Fokine arranged the choreography. Glazunov was instructed that to prevent interference from the censor, he should arrange that the person of Christ would never appear on the stage. He would be invisible, seen only by the actors. Glazunov thought up a theme for Christ, first introduced in a gently lilting 6/8 on cor anglais. Even if the theme does not, as the composer asserts, germinate ‘the entirety of the music’, it certainly lends itself to abundant symphonic variation and the whole work proves to be more of a symphonic entity than many other sets of incidental music. There are several choral sections, some with a baritone soloist, and the work consists of, in addition to the Introduction and Chorus, four Entr'actes, Song of Jesus' Disciples, The Levites' Trumpets (actually horns), Act II ending, Syrian Dance, Shepherd's Musette and Song of the Singers of Psalms.

Лог создания рипа

Exact Audio Copy V0.99 prebeta 5 from 4. May 2009
EAC extraction logfile from 15. January 2010, 12:05
Gennady Rozhdestvensky - Russian State Symphony Orchestra & Cappella / Glazunov - King of the Jews
Used drive : TSSTcorpCDDVDW TS-L632H Adapter: 2 ID: 0
Read mode : Secure
Utilize accurate stream : Yes
Defeat audio cache : Yes
Make use of C2 pointers : No
Read offset correction : 6
Overread into Lead-In and Lead-Out : No
Fill up missing offset samples with silence : Yes
Delete leading and trailing silent blocks : No
Null samples used in CRC calculations : Yes
Used interface : Native Win32 interface for Win NT & 2000
Used output format : User Defined Encoder
Selected bitrate : 32 kBit/s
Quality : High
Add ID3 tag : No
Command line compressor : C:\Program Files\Exact Audio Copy\Flac\flac.exe
Additional command line options : -8 -V -T "ARTIST=%a" -T "TITLE=%t" -T "ALBUM=%g" -T "DATE=%y" -T "TRACKNUMBER=%n" -T "TOTALTRACKS=%x" -T "GENRE=%m" -T "ALBUM ARTIST=%v" -T "ALBUMARTIST=%v" -T "COMMENT=EAC V0.99 prebeta 4, Secure Mode, Test & Copy, FLAC -8
TOC of the extracted CD
Track | Start | Length | Start sector | End sector
---------------------------------------------------------
1 | 0:00.00 | 9:32.17 | 0 | 42916
2 | 9:32.17 | 3:35.48 | 42917 | 59089
3 | 13:07.65 | 6:30.32 | 59090 | 88371
4 | 19:38.22 | 0:50.18 | 88372 | 92139
5 | 20:28.40 | 0:35.72 | 92140 | 94836
6 | 21:04.37 | 6:10.18 | 94837 | 122604
7 | 27:14.55 | 5:26.27 | 122605 | 147081
8 | 32:41.07 | 6:04.45 | 147082 | 174426
9 | 38:45.52 | 7:24.35 | 174427 | 207761
10 | 46:10.12 | 0:44.35 | 207762 | 211096
11 | 46:54.47 | 4:59.68 | 211097 | 233589
Range status and errors
Selected range
Filename C:\Users\horacio\Desktop\Gennady Rozhdestvensky - Russian State Symphony Orchestra & Cappella - Glazunov - King of the Jews.wav
Peak level 98.8 %
Range quality 100.0 %
Copy CRC F0114908
Copy OK
No errors occurred
AccurateRip summary
Track 1 cannot be verified as accurate (confidence 3) [BB7B441F], AccurateRip returned [A5228B77]
Track 2 cannot be verified as accurate (confidence 3) [D3123C50], AccurateRip returned [65666762]
Track 3 cannot be verified as accurate (confidence 3) [86C7FD19], AccurateRip returned [FAA65783]
Track 4 cannot be verified as accurate (confidence 3) [896B62EF], AccurateRip returned [817BE908]
Track 5 cannot be verified as accurate (confidence 3) [AA7B78B7], AccurateRip returned [7B782279]
Track 6 cannot be verified as accurate (confidence 3) [BD118439], AccurateRip returned [9081F7ED]
Track 7 cannot be verified as accurate (confidence 3) [61A6823E], AccurateRip returned [460B86B4]
Track 8 cannot be verified as accurate (confidence 3) [D5DC2B92], AccurateRip returned [A78F6F10]
Track 9 cannot be verified as accurate (confidence 3) [81A0629D], AccurateRip returned [8AA06283]
Track 10 cannot be verified as accurate (confidence 3) [3355EE19], AccurateRip returned [BCDB7A24]
Track 11 cannot be verified as accurate (confidence 3) [11512800], AccurateRip returned [1450E384]
No tracks could be verified as accurate
You may have a different pressing from the one(s) in the database
End of status report

Содержание индексной карты (.CUE)

REM DISCID 9D0C2A0B
REM COMMENT "ExactAudioCopy v0.99pb5"
PERFORMER "Gennady Rozhdestvensky - Russian State Symphony Orchestra & Cappella"
TITLE "Glazunov - King of the Jews"
FILE "Gennady Rozhdestvensky - Russian State Symphony Orchestra & Cappella - Glazunov - King of the Jews.flac" WAVE
TRACK 01 AUDIO
TITLE "I. Entrance of Christ into Jerusalem-"
PERFORMER "Gennady Rozhdestvensky - Russian State Symphony Orchestra & Cappella"
INDEX 01 00:00:00
TRACK 02 AUDIO
TITLE "II. Song Of Jesus's Diciples-"
PERFORMER "Gennady Rozhdestvensky - Russian State Symphony Orchestra & Cappella"
INDEX 01 09:32:17
TRACK 03 AUDIO
TITLE "III. Entr'acte To Act II- The Palace Of Pontius Pilate-"
PERFORMER "Gennady Rozhdestvensky - Russian State Symphony Orchestra & Cappella"
INDEX 01 13:07:65
TRACK 04 AUDIO
TITLE "IV. The Levite's Trumpets-"
PERFORMER "Gennady Rozhdestvensky - Russian State Symphony Orchestra & Cappella"
INDEX 01 19:38:22
TRACK 05 AUDIO
TITLE "V. Concerto To Act II"
PERFORMER "Gennady Rozhdestvensky - Russian State Symphony Orchestra & Cappella"
INDEX 01 20:28:40
TRACK 06 AUDIO
TITLE "VI. Entr'acte To Act III, Scene 1-"
PERFORMER "Gennady Rozhdestvensky - Russian State Symphony Orchestra & Cappella"
INDEX 01 21:04:37
TRACK 07 AUDIO
TITLE "VII. Entr'acte To Act III, Scene 2-"
PERFORMER "Gennady Rozhdestvensky - Russian State Symphony Orchestra & Cappella"
INDEX 01 27:14:55
TRACK 08 AUDIO
TITLE "VIII. Syrian Dance"
PERFORMER "Gennady Rozhdestvensky - Russian State Symphony Orchestra & Cappella"
INDEX 01 32:41:07
TRACK 09 AUDIO
TITLE "IX. Entr'acte To Act IV-"
PERFORMER "Gennady Rozhdestvensky - Russian State Symphony Orchestra & Cappella"
INDEX 01 38:45:52
TRACK 10 AUDIO
TITLE "X. Shepherds Musette"
PERFORMER "Gennady Rozhdestvensky - Russian State Symphony Orchestra & Cappella"
INDEX 01 46:10:12
TRACK 11 AUDIO
TITLE "XI. Song Of The Singers Of Psalms-"
PERFORMER "Gennady Rozhdestvensky - Russian State Symphony Orchestra & Cappella"
INDEX 01 46:54:47

Треклист

01. I. Entrance of Christ into Jerusalem [0:09:32.22]
02. II. Song Of Jesus's Diciples [0:03:35.64]
03. III. Entr'acte To Act II - The Palace Of Pontius Pilate [0:06:30.42]
04. IV. The Levite's Trumpets [0:00:50.24]
05. V. Concerto To Act II [0:00:35.96]
06. VI. Entr'acte To Act III, Scene 1 [0:06:10.24]
07. VII. Entr'acte To Act III, Scene 2 [0:05:26.36]
08. VIII. Syrian Dance [0:06:04.60]
09. IX. Entr'acte To Act IV [0:07:24.46]
10. X. Shepherds Musette [0:00:44.46]
11. XI. Song Of The Singers Of Psalms [0:04:59.90]



Показать сообщения:    

Текущее время: 11-Дек 16:56

Часовой пояс: UTC + 3


Вы не можете начинать темы
Вы не можете отвечать на сообщения
Вы не можете редактировать свои сообщения
Вы не можете удалять свои сообщения
Вы не можете голосовать в опросах
Вы не можете прикреплять файлы к сообщениям
Вы не можете скачивать файлы