(Opera) Puccini - Suor Angelica • Leoni - L'Oracolo (Sutherland, Ludwig, Collins - Sutherland, Van Allen, Gobbi - National Philharmonic Orchestra, Bonynge ) - 2005, APE (image+.cue) lossless


 

[Цитировать]

Giacomo Puccini - Suor Angelica • Franco Leoni - L'Oracolo
Жанр: Opera
Страна-производитель диска: Germany
Год издания диска: 2005
Издатель (лейбл): Decca
Номер по каталогу: 475 6531
Дата записи: 1977, 1979
Аудиокодек: APE
Тип рипа: image+.cue
Битрейт аудио: lossless
Продолжительность: 61'19+65'20
Источник: собственный рип
Наличие сканов в содержимом раздачи: да
Треклист / Исполнители:
Suor Angelica
Треклист: CD1
01 Ave Maria, piena di grazia
02 Sorella in umita
03 O sorelle in pio lavoro
04 Ho un desiderio anch'io!
05 Laudata Maria! - E sempre sia!
06 Suor Angelica! - Madre, Madre
07 Il Principe Gualtiero vostro
08 Nel silenzio di quei raccogli
09 Tutto ho offerto alla Vergine
10 Senza mamm, o bimbo, tu sei
11 Sorella, o buona sorella
12 La grazia e discesa dal cielo
13 Ah, son dannata!
Bonus :
14 Tosca: Vissi d'arte
Giacomo Puccini - Suor Angelica
Suor Angelica - Joan Sutherland
La zia Principessa - Christa Ludwig
La Badessa - Anne Collins
La suora Zelatrice - Elizabeth Connell
La maestra delle novizie - Enid Hartle
Suor Genovieffa - Buchanan Isobel
Suor Osmina - Marie McLaughlin
Suor Dolcina - Della Jones
La sorella infermiera - Janet Price
The Finchley Children's Music Group
The London Opera Chorus - Finchley
National Philharmonic Orchestra
Richard Bonynge
L'Oracolo
Треклист: CD2
1. Wufet: tanhae fulu: samciau
2. Sappiente Dottore, presto vai oggi al tempio!
3. Pensa prima all'uomo lussorioso
4. Ah! .. Ah! ... Ah! ... Bianca luce silente
5. Tartarughe! Rane dell'Hong Kong!
6. Ecco il piccolo dio d'amore!
7. S'invochi Amitâbha con il canto!
8. Il Drago! Il Drago!
9. Donna! Non vedo il bambino!
10. Ah-Joe, uno sgomento
11. Si! Scendo giù!
12. Ferito! L'hanno ferito!
13. Un assassino! Dei di pietà
14. Il bimbo, il bombo mio è ritornato!
15. Senti il rombo del sangue vertiginoso?
Franco Leoni - L'Oracolo
Uin-Sci - Richard van Allan
Cim-Fen - Tito Gobbi
Hu-Tsin - Clifford Grant
Ah-Joe - Joan Sutherland
L'indovino - Ian Caley
Uin-San-Lui - Ryland Davies
John Alldis Choir
The Finchley Children's Music Group
National Philharmonic Orchestra
Richard Bonynge

Лог создания рипа

CD1

Exact Audio Copy V1.0 beta 6 from 9. April 2015
EAC extraction logfile from 4. October 2015, 20:47
Sutherland_Gobbi_Van_Allen_Grant_National_Philh_Orch_Bonynge / Leoni - L'oracolo, Bonynge
Used drive : TS8XDVDSTRANSCEND Adapter: 1 ID: 2
Read mode : Secure
Utilize accurate stream : Yes
Defeat audio cache : Yes
Make use of C2 pointers : No
Read offset correction : 6
Overread into Lead-In and Lead-Out : No
Fill up missing offset samples with silence : Yes
Delete leading and trailing silent blocks : No
Null samples used in CRC calculations : Yes
Used interface : Native Win32 interface for Win NT & 2000
Used output format : Monkey's Audio Lossless Encoder
Selected bitrate : High Lossless Compression
Quality : High
Add ID3 tag : Yes
Command line compressor : C:\Program Files (x86)\Exact Audio Copy\MAC\MAC.exe
TOC of the extracted CD
Track | Start | Length | Start sector | End sector
---------------------------------------------------------
1 | 0:00.33 | 6:32.50 | 33 | 29482
2 | 6:33.08 | 1:32.25 | 29483 | 36407
3 | 8:05.33 | 2:57.50 | 36408 | 49732
4 | 11:03.08 | 6:37.05 | 49733 | 79512
5 | 17:40.13 | 6:01.20 | 79513 | 106607
6 | 23:41.33 | 2:49.50 | 106608 | 119332
7 | 26:31.08 | 4:08.10 | 119333 | 137942
8 | 30:39.18 | 3:59.60 | 137943 | 155927
9 | 34:39.03 | 2:42.05 | 155928 | 168082
10 | 37:21.08 | 4:44.62 | 168083 | 189444
11 | 42:05.70 | 3:15.73 | 189445 | 204142
12 | 45:21.68 | 4:07.47 | 204143 | 222714
13 | 49:29.40 | 4:59.55 | 222715 | 245194
14 | 54:29.20 | 5:28.65 | 245195 | 269859
15 | 59:58.10 | 5:22.22 | 269860 | 294031
Range status and errors
Selected range
Filename D:\EAC\Leoni - L'oracolo, Bonynge.wav
Peak level 96.9 %
Extraction speed 4.7 X
Range quality 100.0 %
Test CRC FEB65F43
Copy CRC FEB65F43
Copy OK
No errors occurred
AccurateRip summary
Track 1 accurately ripped (confidence 3) [E6B4F332] (AR v1)
Track 2 accurately ripped (confidence 3) [6970A994] (AR v1)
Track 3 accurately ripped (confidence 3) [92F0AC11] (AR v1)
Track 4 accurately ripped (confidence 3) [8D4B0FFA] (AR v1)
Track 5 accurately ripped (confidence 3) [B09AD63E] (AR v1)
Track 6 accurately ripped (confidence 3) [6E311E65] (AR v1)
Track 7 accurately ripped (confidence 3) [B2DCCE25] (AR v1)
Track 8 accurately ripped (confidence 3) [669B0277] (AR v1)
Track 9 accurately ripped (confidence 3) [31DCC4C1] (AR v1)
Track 10 accurately ripped (confidence 3) [6B5C2112] (AR v1)
Track 11 accurately ripped (confidence 3) [5C1D2E85] (AR v1)
Track 12 accurately ripped (confidence 3) [86CFA1BA] (AR v1)
Track 13 accurately ripped (confidence 3) [FBC1B8DA] (AR v1)
Track 14 accurately ripped (confidence 3) [10F8407F] (AR v1)
Track 15 accurately ripped (confidence 3) [BD7EA536] (AR v1)
All tracks accurately ripped
End of status report
---- CUETools DB Plugin V2.1.6
[CTDB TOCID: N41UJQxfpgCyCMq_kWXRVFxsP6c-] found
Submit result: unrecognized or virtual drive
Track | CTDB Status
1 | (1/1) Accurately ripped
2 | (1/1) Accurately ripped
3 | (1/1) Accurately ripped
4 | (1/1) Accurately ripped
5 | (1/1) Accurately ripped
6 | (1/1) Accurately ripped
7 | (1/1) Accurately ripped
8 | (1/1) Accurately ripped
9 | (1/1) Accurately ripped
10 | (1/1) Accurately ripped
11 | (1/1) Accurately ripped
12 | (1/1) Accurately ripped
13 | (1/1) Accurately ripped
14 | (1/1) Accurately ripped
15 | (1/1) Accurately ripped
==== Log checksum A20203A4F3AC82950195659F5B2768F6C58301E642D1D4D596CEDCDFAD376BD7 ====

CD2

Exact Audio Copy V1.0 beta 6 from 9. April 2015
EAC extraction logfile from 4. October 2015, 20:46
Sutherland_Ludwig_Collins_Connell_National_Philh_Orch_Bonynge / Puccini - Suor Angelica, Bonynge
Used drive : TSSTcorpCDDVDW SE-208AB Adapter: 1 ID: 1
Read mode : Secure
Utilize accurate stream : Yes
Defeat audio cache : Yes
Make use of C2 pointers : No
Read offset correction : 6
Overread into Lead-In and Lead-Out : No
Fill up missing offset samples with silence : Yes
Delete leading and trailing silent blocks : No
Null samples used in CRC calculations : Yes
Used interface : Native Win32 interface for Win NT & 2000
Used output format : Monkey's Audio Lossless Encoder
Selected bitrate : High Lossless Compression
Quality : High
Add ID3 tag : Yes
Command line compressor : C:\Program Files (x86)\Exact Audio Copy\MAC\MAC.exe
TOC of the extracted CD
Track | Start | Length | Start sector | End sector
---------------------------------------------------------
1 | 0:00.00 | 3:33.27 | 0 | 16001
2 | 3:33.27 | 6:34.45 | 16002 | 45596
3 | 10:07.72 | 3:54.20 | 45597 | 63166
4 | 14:02.17 | 4:23.50 | 63167 | 82941
5 | 18:25.67 | 3:44.35 | 82942 | 99776
6 | 22:10.27 | 3:20.60 | 99777 | 114836
7 | 25:31.12 | 6:27.65 | 114837 | 143926
8 | 31:59.02 | 2:53.33 | 143927 | 156934
9 | 34:52.35 | 6:24.07 | 156935 | 185741
10 | 41:16.42 | 4:43.15 | 185742 | 206981
11 | 45:59.57 | 2:42.40 | 206982 | 219171
12 | 48:42.22 | 4:38.33 | 219172 | 240054
13 | 53:20.55 | 4:20.15 | 240055 | 259569
14 | 57:40.70 | 3:37.50 | 259570 | 275894
Range status and errors
Selected range
Filename D:\EAC\Puccini - Suor Angelica, Bonynge.wav
Peak level 98.8 %
Extraction speed 4.6 X
Range quality 100.0 %
Test CRC 7C254E24
Copy CRC 7C254E24
Copy OK
No errors occurred
AccurateRip summary
Track 1 accurately ripped (confidence 3) [8A8A081B] (AR v1)
Track 2 accurately ripped (confidence 3) [60707447] (AR v1)
Track 3 accurately ripped (confidence 3) [C10A57DE] (AR v1)
Track 4 accurately ripped (confidence 3) [BB5252CC] (AR v1)
Track 5 accurately ripped (confidence 3) [CA4187D8] (AR v1)
Track 6 accurately ripped (confidence 3) [6613C9F6] (AR v1)
Track 7 accurately ripped (confidence 3) [F4734F15] (AR v1)
Track 8 accurately ripped (confidence 3) [C4BE6738] (AR v1)
Track 9 accurately ripped (confidence 3) [A5DEF83D] (AR v1)
Track 10 accurately ripped (confidence 3) [949A9018] (AR v1)
Track 11 accurately ripped (confidence 3) [F77A45FB] (AR v1)
Track 12 accurately ripped (confidence 3) [B420EB1E] (AR v1)
Track 13 accurately ripped (confidence 3) [16E8A6EF] (AR v1)
Track 14 accurately ripped (confidence 3) [E1526921] (AR v1)
All tracks accurately ripped
End of status report
---- CUETools DB Plugin V2.1.6
[CTDB TOCID: ZigOgkHEb8CmGdRQDHCp88RDD3Y-] found
Submit result: ZigOgkHEb8CmGdRQDHCp88RDD3Y- has been confirmed
Track | CTDB Status
1 | (9/9) Accurately ripped
2 | (9/9) Accurately ripped
3 | (9/9) Accurately ripped
4 | (9/9) Accurately ripped
5 | (9/9) Accurately ripped
6 | (9/9) Accurately ripped
7 | (9/9) Accurately ripped
8 | (9/9) Accurately ripped
9 | (9/9) Accurately ripped
10 | (9/9) Accurately ripped
11 | (9/9) Accurately ripped
12 | (9/9) Accurately ripped
13 | (9/9) Accurately ripped
14 | (9/9) Accurately ripped
==== Log checksum AF9B13AEB9CABB7CA6586183F49F07DA98FEC442733E00C88824C750A3A20E98 ====

Содержание индексной карты (.CUE)

CD1

REM GENRE Opera
REM DATE 1977
REM DISCID C70F500F
REM COMMENT "ExactAudioCopy v1.0b6"
CATALOG 0028947565338
PERFORMER "Sutherland_Gobbi_Van_Allen_Grant_National_Philh_Orch_Bonynge"
TITLE "Leoni - L'oracolo, Bonynge"
FILE "Leoni - L'oracolo, Bonynge.ape" WAVE
TRACK 01 AUDIO
TITLE "Wufet: tanhae fulu"
PERFORMER "Sutherland_Gobbi_Van_Allen_Grant_National_Philh_Orch_Bonynge"
ISRC GBF077542201
INDEX 00 00:00:00
INDEX 01 00:00:33
TRACK 02 AUDIO
TITLE "Sappiente Dottore, presto vai oggi"
PERFORMER "Sutherland_Gobbi_Van_Allen_Grant_National_Philh_Orch_Bonynge"
ISRC GBF077542202
INDEX 01 06:33:08
TRACK 03 AUDIO
TITLE "Pensa prima all'uomo lussurioso"
PERFORMER "Sutherland_Gobbi_Van_Allen_Grant_National_Philh_Orch_Bonynge"
ISRC GBF077542203
INDEX 01 08:05:33
TRACK 04 AUDIO
TITLE "Ah! Ah! Ah! - Bianca luce silente"
PERFORMER "Sutherland_Gobbi_Van_Allen_Grant_National_Philh_Orch_Bonynge"
ISRC GBF077542204
INDEX 01 11:03:08
TRACK 05 AUDIO
TITLE "Tartarughe! Rane dell'Hong-Kong!"
PERFORMER "Sutherland_Gobbi_Van_Allen_Grant_National_Philh_Orch_Bonynge"
ISRC GBF077542204
INDEX 01 17:40:13
TRACK 06 AUDIO
TITLE "Ecco il piccolo dio d'amore"
PERFORMER "Sutherland_Gobbi_Van_Allen_Grant_National_Philh_Orch_Bonynge"
ISRC GBF077542206
INDEX 01 23:41:33
TRACK 07 AUDIO
TITLE "S'invochi Amitabha con il canto"
PERFORMER "Sutherland_Gobbi_Van_Allen_Grant_National_Philh_Orch_Bonynge"
ISRC GBF077542207
INDEX 01 26:31:08
TRACK 08 AUDIO
TITLE "Il Drago! Il Drago!"
PERFORMER "Sutherland_Gobbi_Van_Allen_Grant_National_Philh_Orch_Bonynge"
ISRC GBF077542208
INDEX 01 30:39:18
TRACK 09 AUDIO
TITLE "Donna! Non vedo il bambino!"
PERFORMER "Sutherland_Gobbi_Van_Allen_Grant_National_Philh_Orch_Bonynge"
ISRC GBF077542209
INDEX 01 34:39:03
TRACK 10 AUDIO
TITLE "Ah-Joe, uno sogomento improvviso m'invade"
PERFORMER "Sutherland_Gobbi_Van_Allen_Grant_National_Philh_Orch_Bonynge"
ISRC GBF077542210
INDEX 01 37:21:08
TRACK 11 AUDIO
TITLE "Si! Scendo giu!"
PERFORMER "Sutherland_Gobbi_Van_Allen_Grant_National_Philh_Orch_Bonynge"
ISRC GBF077542211
INDEX 01 42:05:70
TRACK 12 AUDIO
TITLE "Ferito! L'hanno ferito!"
PERFORMER "Sutherland_Gobbi_Van_Allen_Grant_National_Philh_Orch_Bonynge"
ISRC GBF077542212
INDEX 01 45:21:68
TRACK 13 AUDIO
TITLE "Un assassinio! Die di pieta!"
PERFORMER "Sutherland_Gobbi_Van_Allen_Grant_National_Philh_Orch_Bonynge"
ISRC GBF077542213
INDEX 01 49:29:40
TRACK 14 AUDIO
TITLE "Il bimbo, il bimbo mido e ritornato!"
PERFORMER "Sutherland_Gobbi_Van_Allen_Grant_National_Philh_Orch_Bonynge"
ISRC GBF077542214
INDEX 01 54:29:20
TRACK 15 AUDIO
TITLE "Senti il rombo del sangue vertiginoso"
PERFORMER "Sutherland_Gobbi_Van_Allen_Grant_National_Philh_Orch_Bonynge"
ISRC GBF077542215
INDEX 01 59:58:10

CD2

REM GENRE Opera
REM DATE 1979
REM DISCID AF0E5E0E
REM COMMENT "ExactAudioCopy v1.0b6"
CATALOG 0028947565321
PERFORMER "Sutherland_Ludwig_Collins_Connell_National_Philh_Orch_Bonynge"
TITLE "Puccini - Suor Angelica, Bonynge"
FILE "Puccini - Suor Angelica, Bonynge.ape" WAVE
TRACK 01 AUDIO
TITLE "Ave Maria, piena di grazia"
PERFORMER "Sutherland_Ludwig_Collins_Connell_National_Philh_Orch_Bonynge"
ISRC GBF077812130
INDEX 01 00:00:00
TRACK 02 AUDIO
TITLE "Sorella in umiltà"
PERFORMER "Sutherland_Ludwig_Collins_Connell_National_Philh_Orch_Bonynge"
ISRC GBF077812180
INDEX 01 03:33:27
TRACK 03 AUDIO
TITLE "O sorelle in pio lavoro"
PERFORMER "Sutherland_Ludwig_Collins_Connell_National_Philh_Orch_Bonynge"
ISRC GBF077812190
INDEX 01 10:07:72
TRACK 04 AUDIO
TITLE "Ho un desiderio anch'io!"
PERFORMER "Sutherland_Ludwig_Collins_Connell_National_Philh_Orch_Bonynge"
ISRC GBF077812200
INDEX 01 14:02:17
TRACK 05 AUDIO
TITLE "Laudata Maria! - E sempre sia!"
PERFORMER "Sutherland_Ludwig_Collins_Connell_National_Philh_Orch_Bonynge"
ISRC GBF077812210
INDEX 01 18:25:67
TRACK 06 AUDIO
TITLE "Suor Angelica! - Madre, Madre, parlate!"
PERFORMER "Sutherland_Ludwig_Collins_Connell_National_Philh_Orch_Bonynge"
ISRC GBF077812220
INDEX 01 22:10:27
TRACK 07 AUDIO
TITLE "Il Principe Gualtiero vostro padre"
PERFORMER "Sutherland_Ludwig_Collins_Connell_National_Philh_Orch_Bonynge"
ISRC GBF077812230
INDEX 01 25:31:12
TRACK 08 AUDIO
TITLE "Nel silenzio di quei raccoglimenti"
PERFORMER "Sutherland_Ludwig_Collins_Connell_National_Philh_Orch_Bonynge"
ISRC GBF077812240
INDEX 01 31:59:02
TRACK 09 AUDIO
TITLE "Tutto ho offerto alla Vergine"
PERFORMER "Sutherland_Ludwig_Collins_Connell_National_Philh_Orch_Bonynge"
ISRC GBF077812250
INDEX 01 34:52:35
TRACK 10 AUDIO
TITLE "Senza mamm, o bimbo, tu sei morto"
PERFORMER "Sutherland_Ludwig_Collins_Connell_National_Philh_Orch_Bonynge"
ISRC GBF077812260
INDEX 01 41:16:42
TRACK 11 AUDIO
TITLE "Sorella, o buona sorella"
PERFORMER "Sutherland_Ludwig_Collins_Connell_National_Philh_Orch_Bonynge"
ISRC GBF077812270
INDEX 01 45:59:57
TRACK 12 AUDIO
TITLE "La grazia è discesa dal cielo"
PERFORMER "Sutherland_Ludwig_Collins_Connell_National_Philh_Orch_Bonynge"
ISRC GBF077812280
INDEX 01 48:42:22
TRACK 13 AUDIO
TITLE "Ah, son dannata!"
PERFORMER "Sutherland_Ludwig_Collins_Connell_National_Philh_Orch_Bonynge"
ISRC GBF077812290
INDEX 01 53:20:55
TRACK 14 AUDIO
TITLE "Tosca: Vissi d'arte"
PERFORMER "Sutherland_Ludwig_Collins_Connell_National_Philh_Orch_Bonynge"
ISRC GBF077211500
INDEX 00 57:31:32
INDEX 01 57:40:70



Показать сообщения:    

Текущее время: 10-Дек 23:28

Часовой пояс: UTC + 3


Вы не можете начинать темы
Вы не можете отвечать на сообщения
Вы не можете редактировать свои сообщения
Вы не можете удалять свои сообщения
Вы не можете голосовать в опросах
Вы не можете прикреплять файлы к сообщениям
Вы не можете скачивать файлы