АукцЫон. Еще (Дмитрий Лавриненко) [2014, Документальный, HDTVRip-AVC]


Статистика раздачи [Обновить пиров]
Размер:  1.26 GB   |    Зарегистрирован:  8 месяцев 14 дней   |    Скачан:  0 раз

Полного источника не было: Никогда

 
   
 
 
 

[Цитировать]

АукцЫон. Еще- Дата/Год выпуска: 2014
Страна: Россия | Beat Films
Телеканал: Первый Канал HD
Жанр: Документальный
Продолжительность: 1:35:43
Режиссер: Дмитрий Лавриненко-Описание: "Ещё" - первый настоящий фильм о группе "АукцЫон", основанной Леонидом Федоровым в 1978 году. Режиссер картины Дмитрий Лавриненко снимал её последние семь лет и побывал там, куда Федоров и сотоварищи никого и близко не подпускали. "Ещё" - первый настоящий фильм о культовой группе "АукцЫон", основанной Леонидом Федоровым в 1978 году.- -Автор рипа: lrn
Автор записи: Alexin29
Сэмпл: sendfile-качество: HDTVRip-AVC
формат: MKV
Видео: 1024x576 (16:9), 25,000 fps, H264, ~1500 kbps avg, ~0.102 bit/pixel
Аудио: 48 kHz, AC3 Dolby Digital, 3/2 (L,C,R,l,r) + LFE ch, ~384.00 kbps avg-

MediaInfo

General
Unique ID : 235861960593404918718343385609489599925 (0xB1715C7BDACAC16795C459A9C2D3CDB5)
Complete name : E:\uTorrent.Temp\Temp\Aukcion.Eshe.2014.HDTVRip-AVC.x264-lrn.mkv
Format : Matroska
Format version : Version 4 / Version 2
File size : 1.26 GiB
Duration : 1h 35mn
Overall bit rate : 1 886 Kbps
Movie name : Aukcion.Eshe.2014.HDTVRip-AVC.x264-lrn
Encoded date : UTC 2010-02-22 21:41:31
Writing application : mkvmerge v5.9.0 ('On The Loose') built on Dec 9 2012 15:37:01
Writing library : libebml v1.3.0 + libmatroska v1.4.0
DURATION : 01:35:43.800000000
NUMBER_OF_FRAMES : 143595
NUMBER_OF_BYTES : 1076953892
_STATISTICS_WRITING_APP : mkvmerge v7.7.0 ('Six Voices') 32bit built on Feb 28 2015 23:23:00
_STATISTICS_WRITING_DATE_UT : 2015-10-11 16:02:16
_STATISTICS_TAGS : BPS DURATION NUMBER_OF_FRAMES NUMBER_OF_BYTES
Video
ID : 1
Format : AVC
Format/Info : Advanced Video Codec
Format profile : High@L4.1
Format settings, CABAC : Yes
Format settings, ReFrames : 8 frames
Codec ID : V_MPEG4/ISO/AVC
Duration : 1h 35mn
Bit rate : 1 500 Kbps
Width : 1 024 pixels
Height : 576 pixels
Display aspect ratio : 16:9
Frame rate mode : Constant
Frame rate : 25.000 fps
Color space : YUV
Chroma subsampling : 4:2:0
Bit depth : 8 bits
Scan type : Progressive
Bits/(Pixel*Frame) : 0.102
Stream size : 1 003 MiB (78%)
Writing library : x264 core 146 r2538 121396c
Encoding settings : cabac=1 / ref=8 / deblock=1:-3:-3 / analyse=0x3:0x133 / me=umh / subme=9 / psy=1 / psy_rd=1.00:0.00 / mixed_ref=1 / me_range=32 / chroma_me=1 / trellis=2 / 8x8dct=1 / cqm=0 / deadzone=21,11 / fast_pskip=1 / chroma_qp_offset=-2 / threads=12 / lookahead_threads=2 / sliced_threads=0 / nr=0 / decimate=1 / interlaced=0 / bluray_compat=0 / constrained_intra=0 / bframes=8 / b_pyramid=2 / b_adapt=2 / b_bias=0 / direct=3 / weightb=1 / open_gop=0 / weightp=2 / keyint=250 / keyint_min=25 / scenecut=40 / intra_refresh=0 / rc_lookahead=50 / rc=2pass / mbtree=1 / bitrate=1500 / ratetol=1.0 / qcomp=0.60 / qpmin=0 / qpmax=69 / qpstep=4 / cplxblur=20.0 / qblur=0.5 / vbv_maxrate=62500 / vbv_bufsize=78125 / nal_hrd=none / filler=0 / ip_ratio=1.40 / aq=1:1.00
Default : Yes
Forced : No
Audio
ID : 2
Format : AC-3
Format/Info : Audio Coding 3
Mode extension : CM (complete main)
Format settings, Endianness : Big
Codec ID : A_AC3
Duration : 1h 35mn
Bit rate mode : Constant
Bit rate : 384 Kbps
Channel(s) : 6 channels
Channel positions : Front: L C R, Side: L R, LFE
Sampling rate : 48.0 KHz
Compression mode : Lossy
Stream size : 263 MiB (20%)
Language : Russian
Default : Yes
Forced : No

x264 log

raw [info]: 1024x576p 1:1 @ 25/1 fps (cfr)
x264 [info]: using SAR=1/1
x264 [info]: using cpu capabilities: MMX2 SSE2Fast SSSE3 SSE4.2 AVX
x264 [info]: profile High, level 4.1
x264 [info]: frame I:1073 Avg QP:18.00 size: 44273
x264 [info]: frame P:38363 Avg QP:21.35 size: 13878
x264 [info]: frame B:104159 Avg QP:23.21 size: 4772
x264 [info]: consecutive B-frames: 3.3% 6.3% 8.7% 51.8% 10.2% 16.5% 1.2% 1.5% 0.6%
x264 [info]: mb I I16..4: 16.2% 70.3% 13.5%
x264 [info]: mb P I16..4: 5.0% 12.2% 1.1% P16..4: 47.7% 11.2% 9.0% 0.2% 0.1% skip:13.5%
x264 [info]: mb B I16..4: 0.4% 1.2% 0.2% B16..8: 40.4% 5.8% 1.2% direct: 4.2% skip:46.8% L0:43.5% L1:49.9% BI: 6.6%
x264 [info]: 8x8 transform intra:67.7% inter:78.2%
x264 [info]: direct mvs spatial:98.2% temporal:1.8%
x264 [info]: coded y,uvDC,uvAC intra: 56.6% 60.0% 23.3% inter: 15.1% 18.2% 0.8%
x264 [info]: i16 v,h,dc,p: 33% 16% 7% 45%
x264 [info]: i8 v,h,dc,ddl,ddr,vr,hd,vl,hu: 10% 9% 8% 9% 13% 14% 13% 12% 13%
x264 [info]: i4 v,h,dc,ddl,ddr,vr,hd,vl,hu: 12% 8% 4% 9% 15% 15% 14% 11% 13%
x264 [info]: i8c dc,h,v,p: 39% 26% 19% 17%
x264 [info]: Weighted P-Frames: Y:4.7% UV:2.5%
x264 [info]: ref P L0: 48.6% 11.2% 17.6% 6.4% 5.3% 4.1% 3.8% 2.5% 0.4% 0.0%
x264 [info]: ref B L0: 78.9% 10.2% 4.9% 2.4% 1.8% 1.2% 0.6%
x264 [info]: ref B L1: 94.8% 5.2%
x264 [info]: kb/s:1499.99
encoded 143595 frames, 23.48 fps, 1499.99 kb/s

Скриншоты

-
[teatrix.ru].t22428.torrent 
Торрент: Зарегистрирован [ 2016-03-20 12:34 ] · 7F8A2453AB245CFA313F61DEE4CED5F8F574F249

Скачать .torrent

Скачать

13 KB

Статус: проверено
Скачан: 0 раз
Размер: 1.26 GB
terms.php



Быстрый ответ

Имя:

      
Для отправки сообщений необходимо включить JavaScript
Показать сообщения:    

Текущее время: 04-Дек 09:10

Часовой пояс: UTC + 3


Вы можете начинать темы
Вы можете отвечать на сообщения
Вы не можете редактировать свои сообщения
Вы не можете удалять свои сообщения
Вы не можете голосовать в опросах
Вы не можете прикреплять файлы к сообщениям
Вы можете скачивать файлы