(Classic/Concerto) [LP] [96/24] Antonio Vivaldi, Concerto for Chamber Orchestra, Moscow Chamber Orchestra - 1978, FLAC (image+.cue)


Статистика раздачи [Обновить пиров]
Размер:  774 MB   |    Зарегистрирован:  8 месяцев 13 дней   |    Скачан:  0 раз

Полного источника не было: Никогда

 
   
 
 
 

[Цитировать]

Antonio Vivaldi, Concerto for Chamber Orchestra, Moscow Chamber Orchestra
Жанр: Classic/Concerto
Носитель: LP
Год выпуска: 1978
Лейбл: Melodia
Страна-производитель: USSR
Аудио кодек: FLAC
Тип рипа: image+.cue
Формат записи: 96/24
Формат раздачи: 96/24
Продолжительность: 39:26
Московский Камерный Оркестр
Треклист:
Концерт Для Оркестра (Соль Минор, Соч. 41 № 3 "Дрезденский")
Concerto in G minor Op.41/3 Dresden
А1 (Allegro Mosso) 3:49
А2 Largo Non Molto 1:52
А3 Allegro 3:39
Концерт Для Флейты, Гобоя, Фагота И Чембало (Соль Минор, Соч. 44 № 3)
Concerto for flute, oboe, bassoon and cembalo in G minor, Op.44/3
А4 Allegro Ma Cantabile 4:12
А5 Largo 3:40
А6 Allegro Ma Non Molto 1:48
Концерт Для Двух Скрипок С Оркестром (Ре Минор, Соч. 27 № 3)
Concerto for Two Violins and Orchestra in D Minor, Op.27/3
В1 Allegro Non Molto 4:25
В2 Adagio 4:04
В3 Allegro Molto 3:18
Концерт Для Виолончели, Фагота, Струнного Оркестра И Чембало (Ми Минор, Соч. 26 № 7)
Cello Concerto, Bassoon, String Orchestra and Cembalo E Minor, Op. 26/7
В4 Adagio. Allegro Etc 4:02
В5 Allegro. Adagio 1:18
В6 Allegro 2:25

Dynamic Range Meter

foobar2000 1.2.2 / Dynamic Range Meter 1.1.1
log date: 2015-11-06 09:42:23
--------------------------------------------------------------------------------
Analyzed: Antonio Vivaldi / Concerto for Chamber Orchestra
--------------------------------------------------------------------------------
DR Peak RMS Duration Track
--------------------------------------------------------------------------------
DR10 -4.50 dB -18.80 dB 3:52 01-Concerto in G minor Op.41/3 Dresden-Allegro Moss
DR11 -11.18 dB -24.44 dB 1:58 02-Concerto in G minor Op.41/3 Dresden-Largo Non Molto
DR11 -4.50 dB -19.06 dB 3:39 03-Concerto in G minor Op.41/3 Dresden-Allegro
DR11 -7.41 dB -20.90 dB 4:16 04-Concerto in G minor, Op.44/3-Allegro Ma Cantabile
DR11 -8.70 dB -22.61 dB 3:45 05-Concerto in G minor, Op.44/3-Largo
DR12 -8.14 dB -22.84 dB 1:53 06-Concerto in G minor, Op.44/3-Allegro Ma Non Molto
DR11 -4.50 dB -19.05 dB 4:31 07-Concerto in D Minor, Op.27/3-Allegro Non Molto
DR12 -4.50 dB -20.72 dB 4:08 08-Concerto in D Minor, Op.27/3-Adagio
DR12 -4.50 dB -19.93 dB 3:21 09-Concerto in D Minor, Op.27/3-Allegro Molto
DR9 -4.50 dB -17.59 dB 4:07 10-Cello Concerto E Minor, Op. 26/7-Adagio. Allegro Etc
DR7 -4.50 dB -15.65 dB 1:22 11-Cello Concerto E Minor, Op. 26/7-Allegro. Adagio
DR10 -4.50 dB -18.37 dB 2:36 12-Cello Concerto E Minor, Op. 26/7-Allegro
--------------------------------------------------------------------------------
Number of tracks: 12
Official DR value: DR11
Samplerate: 96000 Hz
Channels: 2
Bits per sample: 24
Bitrate: 2724 kbps
Codec: FLAC
================================================================================
Источник оцифровки: автором раздачи
Код класса состояния винила: VG+
Устройство воспроизведения: Электроника Б1-01
Головка звукоснимателя: Audio Technica AT30E
Предварительный усилитель: MC/MM solid state & tube phono preamp Borbelli (6Н23П)
АЦП: EMU 0404
Программа-оцифровщик: Sound Forge v.11
Обработка: нет

Спектр

АЧХ

Уровень записи

[teatrix.ru].t22429.torrent 
Торрент: Зарегистрирован [ 2016-03-20 12:34 ] · 41ACF81F0C1EED4A2A7EC0643299132D8DFC8639

Скачать .torrent

Скачать

16 KB

Статус: проверено
Скачан: 0 раз
Размер: 774 MB
terms.php



Быстрый ответ

Имя:

      
Для отправки сообщений необходимо включить JavaScript
Показать сообщения:    

Текущее время: 03-Дек 01:21

Часовой пояс: UTC + 3


Вы можете начинать темы
Вы можете отвечать на сообщения
Вы не можете редактировать свои сообщения
Вы не можете удалять свои сообщения
Вы не можете голосовать в опросах
Вы не можете прикреплять файлы к сообщениям
Вы можете скачивать файлы