(Opera) Charles Gounod - Romeo et Juliette / Шарль Гуно - Ромео и Джульетта (Michel Plasson; Catherine Malfitano, Alfredo Kraus, Jose van Dam, Charles Burles, Gino Quilico, Gabriel Bacquier), 1983 - Studio recording, FLAC (tracks+.cue), lossless


 

[Цитировать]

Charles Gounod - Roméo et Juliette / Шарль Гуно - Ромео и Джульетта (Michel Plasson; Catherine Malfitano, Alfredo Kraus, José van Dam, Charles Burles, Gino Quilico, Gabriel Bacquier)
Жанр: Opera
Страна-производитель диска: Франция
Год издания диска: 1985
Издатель (лейбл): EMI Classics
Дата записи: 1983
Аудиокодек: FLAC
Тип рипа: tracks+.cue
Битрейт аудио: lossless
Продолжительность: 167:29
Источник: релизер (Guillermo)
Исполнители:
Juliette - Catherine Malfitano,
Roméo - Alfredo Kraus,
Frère Laurence - José van Dam,
Tybalt - Charles Burles,
Mercutio - Gino Quilico,
Gertrude - Jocelyne Taillon,
Capulet - Gabriel Bacquier,
Le Prince - Jean-Jacques Doumène,
Gregorio - Jean-Marie Frémeau,
Stéphano - Ann Murray,
Pâris - Kurt Ollmann,
Benvolio - Roger Trentin.
Conductor - Michel Plasson,
Orchestra and Chorus of Capitole de Toulouse,
Choeur Régional Midi-Pyrénées.
Recorded at Halle aux Grains, Toulouse, France, June 25 - July 7, 1983.

Лог создания рипаЛог создания рипа CD 1

Exact Audio Copy V1.0 beta 3 from 29. August 2011
EAC extraction logfile from 10. September 2015, 19:31
Charles Gounod / Romeo & Juliette
Used drive : HL-DT-STDVDRAM GH24NSC0 Adapter: 3 ID: 0
Read mode : Secure
Utilize accurate stream : Yes
Defeat audio cache : Yes
Make use of C2 pointers : No
Read offset correction : 6
Overread into Lead-In and Lead-Out : No
Fill up missing offset samples with silence : Yes
Delete leading and trailing silent blocks : No
Null samples used in CRC calculations : Yes
Used interface : Native Win32 interface for Win NT & 2000
Gap handling : Appended to previous track
Used output format : User Defined Encoder
Selected bitrate : 768 kBit/s
Quality : High
Add ID3 tag : No
Command line compressor : C:\Program Files (x86)\Exact Audio Copy\FLAC\FLAC.EXE
Additional command line options : -8 -V -T "ARTIST=%artist%" -T "TITLE=%title%" -T "ALBUM=%albumtitle%" -T "DATE=%year%" -T "TRACKNUMBER=%tracknr%" -T "GENRE=%genre%" -T "PERFORMER=%albuminterpret%" -T "COMPOSER=%composer%" %haslyrics%--tag-from-file=LYRICS="%lyricsfile%"%haslyrics% -T "ALBUMARTIST=%albumartist%" -T "DISCNUMBER=%cdnumber%" -T "TOTALDISCS=%totalcds%" -T "TOTALTRACKS=%numtracks%" -T "COMMENT=%comment%" %source% -o %dest%
TOC of the extracted CD
Track | Start | Length | Start sector | End sector
---------------------------------------------------------
1 | 0:00.00 | 6:47.67 | 0 | 30591
2 | 6:47.67 | 11:34.13 | 30592 | 82654
3 | 18:22.05 | 2:26.72 | 82655 | 93676
4 | 20:49.02 | 3:31.03 | 93677 | 109504
5 | 24:20.05 | 3:55.20 | 109505 | 127149
6 | 28:15.25 | 0:25.35 | 127150 | 129059
7 | 28:40.60 | 4:24.47 | 129060 | 148906
8 | 33:05.32 | 5:31.36 | 148907 | 173767
9 | 38:36.68 | 4:04.23 | 173768 | 192090
10 | 42:41.16 | 4:19.25 | 192091 | 211540
11 | 47:00.41 | 8:58.57 | 211541 | 251947
Track 1
Filename f:\Users\Guillermo\Desktop\EAC convertidos\01 Ouverture. Prologue.wav
Pre-gap length 0:00:02.00
Peak level 79.4 %
Extraction speed 1.7 X
Track quality 99.9 %
Test CRC 3C120105
Copy CRC 3C120105
Copy OK
Track 2
Filename f:\Users\Guillermo\Desktop\EAC convertidos\02 Acte premier. Introduction.wav
Pre-gap length 0:00:02.00
Peak level 88.5 %
Extraction speed 2.3 X
Track quality 100.0 %
Test CRC 277E6674
Copy CRC 277E6674
Copy OK
Track 3
Filename f:\Users\Guillermo\Desktop\EAC convertidos\03 Acte premier. Ballade De La Reine Mab.wav
Pre-gap length 0:00:02.00
Peak level 43.2 %
Extraction speed 2.0 X
Track quality 100.0 %
Test CRC B8FD3065
Copy CRC B8FD3065
Copy OK
Track 4
Filename f:\Users\Guillermo\Desktop\EAC convertidos\04 Acte premier. Recitatif & Scene.wav
Pre-gap length 0:00:02.00
Peak level 51.3 %
Extraction speed 2.3 X
Track quality 100.0 %
Test CRC BB6FC1E2
Copy CRC BB6FC1E2
Copy OK
Track 5
Filename f:\Users\Guillermo\Desktop\EAC convertidos\05 Acte premier. Ariette.wav
Pre-gap length 0:00:02.00
Peak level 45.9 %
Extraction speed 2.4 X
Track quality 100.0 %
Test CRC 70B97B01
Copy CRC 70B97B01
Copy OK
Track 6
Filename f:\Users\Guillermo\Desktop\EAC convertidos\06 Acte premier. Recitatif.wav
Pre-gap length 0:00:02.00
Peak level 30.0 %
Extraction speed 0.9 X
Track quality 100.0 %
Test CRC A7ACE761
Copy CRC A7ACE761
Copy OK
Track 7
Filename f:\Users\Guillermo\Desktop\EAC convertidos\07 Acte premier. Madrigal.wav
Pre-gap length 0:00:02.00
Peak level 51.3 %
Extraction speed 2.6 X
Track quality 100.0 %
Test CRC AAF1961F
Copy CRC AAF1961F
Copy OK
Track 8
Filename f:\Users\Guillermo\Desktop\EAC convertidos\08 Acte premier. Finale.wav
Pre-gap length 0:00:02.00
Peak level 80.1 %
Extraction speed 2.9 X
Track quality 100.0 %
Test CRC 1F92C0C7
Copy CRC 1F92C0C7
Copy OK
Track 9
Filename f:\Users\Guillermo\Desktop\EAC convertidos\09 Acte deuxieme. Entracte & choeur.wav
Pre-gap length 0:00:02.00
Peak level 33.6 %
Extraction speed 2.8 X
Track quality 100.0 %
Test CRC 78093A9E
Copy CRC 78093A9E
Copy OK
Track 10
Filename f:\Users\Guillermo\Desktop\EAC convertidos\10 Acte deuxieme. Cavatine.wav
Pre-gap length 0:00:02.00
Peak level 53.8 %
Extraction speed 3.0 X
Track quality 100.0 %
Test CRC 6EF1DC1D
Copy CRC 6EF1DC1D
Copy OK
Track 11
Filename f:\Users\Guillermo\Desktop\EAC convertidos\11 Acte deuxieme. Scene & Choeurs.wav
Pre-gap length 0:00:02.00
Peak level 61.4 %
Extraction speed 3.4 X
Track quality 100.0 %
Test CRC F833A90D
Copy CRC F833A90D
Copy OK
No errors occurred
End of status report
==== Log checksum 595BF976B702CAAA1B423840862A8E64BD9D9F0B9F2FAAE5297DEF9CD0CC1769 ====

Лог создания рипа CD 2

Exact Audio Copy V1.0 beta 3 from 29. August 2011
EAC extraction logfile from 10. September 2015, 20:17
Charles Gounod / Romeo & Juliette (CD 2)
Used drive : HL-DT-STDVDRAM GH24NSC0 Adapter: 3 ID: 0
Read mode : Secure
Utilize accurate stream : Yes
Defeat audio cache : Yes
Make use of C2 pointers : No
Read offset correction : 6
Overread into Lead-In and Lead-Out : No
Fill up missing offset samples with silence : Yes
Delete leading and trailing silent blocks : No
Null samples used in CRC calculations : Yes
Used interface : Native Win32 interface for Win NT & 2000
Gap handling : Appended to previous track
Used output format : User Defined Encoder
Selected bitrate : 768 kBit/s
Quality : High
Add ID3 tag : No
Command line compressor : C:\Program Files (x86)\Exact Audio Copy\FLAC\FLAC.EXE
Additional command line options : -8 -V -T "ARTIST=%artist%" -T "TITLE=%title%" -T "ALBUM=%albumtitle%" -T "DATE=%year%" -T "TRACKNUMBER=%tracknr%" -T "GENRE=%genre%" -T "PERFORMER=%albuminterpret%" -T "COMPOSER=%composer%" %haslyrics%--tag-from-file=LYRICS="%lyricsfile%"%haslyrics% -T "ALBUMARTIST=%albumartist%" -T "DISCNUMBER=%cdnumber%" -T "TOTALDISCS=%totalcds%" -T "TOTALTRACKS=%numtracks%" -T "COMMENT=%comment%" %source% -o %dest%
TOC of the extracted CD
Track | Start | Length | Start sector | End sector
---------------------------------------------------------
1 | 0:00.00 | 10:47.55 | 0 | 48579
2 | 10:47.55 | 6:51.60 | 48580 | 79464
3 | 17:39.40 | 5:47.55 | 79465 | 105544
4 | 23:27.20 | 4:17.48 | 105545 | 124867
5 | 27:44.68 | 17:40.17 | 124868 | 204384
6 | 45:25.10 | 12:59.53 | 204385 | 262862
Track 1
Filename f:\Users\Guillermo\Desktop\EAC convertidos\01 Acte deuxieme. Duo.wav
Pre-gap length 0:00:02.00
Peak level 53.9 %
Extraction speed 2.0 X
Track quality 100.0 %
Test CRC DBCF2D7A
Copy CRC DBCF2D7A
Copy OK
Track 2
Filename f:\Users\Guillermo\Desktop\EAC convertidos\02 Acte troisieme. Entracte & Scene.wav
Pre-gap length 0:00:02.00
Peak level 47.7 %
Extraction speed 2.3 X
Track quality 100.0 %
Test CRC 5A6E3CDB
Copy CRC 5A6E3CDB
Copy OK
Track 3
Filename f:\Users\Guillermo\Desktop\EAC convertidos\03 Acte troisieme. Trio & Quatuor.wav
Pre-gap length 0:00:02.00
Peak level 62.6 %
Extraction speed 2.4 X
Track quality 100.0 %
Test CRC 672EEEF2
Copy CRC 672EEEF2
Copy OK
Track 4
Filename f:\Users\Guillermo\Desktop\EAC convertidos\04 Acte troisieme. Chanson.wav
Pre-gap length 0:00:02.00
Peak level 46.7 %
Extraction speed 2.5 X
Track quality 100.0 %
Test CRC FF60BAE3
Copy CRC FF60BAE3
Copy OK
Track 5
Filename f:\Users\Guillermo\Desktop\EAC convertidos\05 Acte troisieme. FInale.wav
Pre-gap length 0:00:02.00
Peak level 92.5 %
Extraction speed 3.2 X
Track quality 100.0 %
Test CRC FC51EC83
Copy CRC FC51EC83
Copy OK
Track 6
Filename f:\Users\Guillermo\Desktop\EAC convertidos\06 Acte quatrieme. Duo.wav
Pre-gap length 0:00:02.00
Peak level 68.6 %
Extraction speed 3.5 X
Track quality 100.0 %
Test CRC AE6850A4
Copy CRC AE6850A4
Copy OK
No errors occurred
End of status report
==== Log checksum FE103BFA5160CB877D14341EAF43525A62F90DADC94D6142B66D979193F43EF2 ====

Лог создания рипа CD 3

Exact Audio Copy V1.0 beta 3 from 29. August 2011
EAC extraction logfile from 10. September 2015, 21:06
Charles Gounod / Romeo & Juliette (CD 3)
Used drive : HL-DT-STDVDRAM GH24NSC0 Adapter: 3 ID: 0
Read mode : Secure
Utilize accurate stream : Yes
Defeat audio cache : Yes
Make use of C2 pointers : No
Read offset correction : 6
Overread into Lead-In and Lead-Out : No
Fill up missing offset samples with silence : Yes
Delete leading and trailing silent blocks : No
Null samples used in CRC calculations : Yes
Used interface : Native Win32 interface for Win NT & 2000
Gap handling : Appended to previous track
Used output format : User Defined Encoder
Selected bitrate : 768 kBit/s
Quality : High
Add ID3 tag : No
Command line compressor : C:\Program Files (x86)\Exact Audio Copy\FLAC\FLAC.EXE
Additional command line options : -8 -V -T "ARTIST=%artist%" -T "TITLE=%title%" -T "ALBUM=%albumtitle%" -T "DATE=%year%" -T "TRACKNUMBER=%tracknr%" -T "GENRE=%genre%" -T "PERFORMER=%albuminterpret%" -T "COMPOSER=%composer%" %haslyrics%--tag-from-file=LYRICS="%lyricsfile%"%haslyrics% -T "ALBUMARTIST=%albumartist%" -T "DISCNUMBER=%cdnumber%" -T "TOTALDISCS=%totalcds%" -T "TOTALTRACKS=%numtracks%" -T "COMMENT=%comment%" %source% -o %dest%
TOC of the extracted CD
Track | Start | Length | Start sector | End sector
---------------------------------------------------------
1 | 0:00.00 | 5:28.65 | 0 | 24664
2 | 5:28.65 | 5:24.27 | 24665 | 48991
3 | 10:53.17 | 6:45.03 | 48992 | 79369
4 | 17:38.20 | 2:56.40 | 79370 | 92609
5 | 20:34.60 | 3:42.59 | 92610 | 109318
6 | 24:17.44 | 5:20.65 | 109319 | 133383
7 | 29:38.34 | 1:56.08 | 133384 | 142091
8 | 31:34.42 | 1:08.12 | 142092 | 147203
9 | 32:42.54 | 2:29.48 | 147204 | 158426
10 | 35:12.27 | 17:06.42 | 158427 | 235418
Track 1
Filename f:\Users\Guillermo\Desktop\EAC convertidos\01 Acte quatrieme. Premiere tableau. Quator.wav
Pre-gap length 0:00:02.00
Peak level 53.1 %
Extraction speed 1.6 X
Track quality 99.9 %
Test CRC 1620D7AA
Copy CRC 1620D7AA
Copy OK
Track 2
Filename f:\Users\Guillermo\Desktop\EAC convertidos\02 Acte quatrieme. Premiere tableau. Scene.wav
Pre-gap length 0:00:02.00
Peak level 54.8 %
Extraction speed 2.0 X
Track quality 100.0 %
Test CRC DF35D97B
Copy CRC DF35D97B
Copy OK
Track 3
Filename f:\Users\Guillermo\Desktop\EAC convertidos\03 Acte quatrieme. Premiere tableau. Scene & Air.wav
Pre-gap length 0:00:02.00
Peak level 59.9 %
Extraction speed 2.0 X
Track quality 99.9 %
Test CRC 079A1AC6
Copy CRC 079A1AC6
Copy OK
Track 4
Filename f:\Users\Guillermo\Desktop\EAC convertidos\04 Acte quatrieme. Deuxieme tableau. Cortege nuptial.wav
Pre-gap length 0:00:02.00
Peak level 39.2 %
Extraction speed 1.7 X
Track quality 99.8 %
Test CRC A0A3DC87
Copy CRC A0A3DC87
Copy OK
Track 5
Filename f:\Users\Guillermo\Desktop\EAC convertidos\05 Acte quatrieme. Deuxieme tableau. Epithalame.wav
Pre-gap length 0:00:02.00
Peak level 67.6 %
Extraction speed 2.3 X
Track quality 100.0 %
Test CRC 5353A6C0
Copy CRC 5353A6C0
Copy OK
Track 6
Filename f:\Users\Guillermo\Desktop\EAC convertidos\06 Acte quatrieme. Deuxieme tableau. Finale.wav
Pre-gap length 0:00:02.00
Peak level 80.8 %
Extraction speed 2.3 X
Track quality 99.9 %
Test CRC 02D3B6DF
Copy CRC 02D3B6DF
Copy OK
Track 7
Filename f:\Users\Guillermo\Desktop\EAC convertidos\07 Acte cinquieme. Entracte.wav
Pre-gap length 0:00:02.00
Peak level 7.0 %
Extraction speed 2.1 X
Track quality 100.0 %
Test CRC 302728ED
Copy CRC 302728ED
Copy OK
Track 8
Filename f:\Users\Guillermo\Desktop\EAC convertidos\08 Acte cinquieme. Scene.wav
Pre-gap length 0:00:02.00
Peak level 29.5 %
Extraction speed 1.8 X
Track quality 100.0 %
Test CRC 9F05E5DA
Copy CRC 9F05E5DA
Copy OK
Track 9
Filename f:\Users\Guillermo\Desktop\EAC convertidos\09 Acte cinquieme. Le sommeil de Juliette.wav
Pre-gap length 0:00:02.00
Peak level 9.3 %
Extraction speed 2.4 X
Track quality 100.0 %
Test CRC FC1C268B
Copy CRC FC1C268B
Copy OK
Track 10
Filename f:\Users\Guillermo\Desktop\EAC convertidos\10 Acte cinquieme. Scene & Duo.wav
Pre-gap length 0:00:02.00
Peak level 71.5 %
Extraction speed 3.4 X
Track quality 100.0 %
Test CRC 75106785
Copy CRC 75106785
Copy OK
No errors occurred
End of status report
==== Log checksum 6584B44E6208A44D6222DB9CCB6EBC602B4AFD4BFAD249EAE424E3F0FAB9DFA6 ====

Содержание индексной карты (.CUE)Содержание индексной карты (.CUE) CD 1

REM GENRE Opera
REM DATE 1984
REM DISCID 930D1F0B
REM COMMENT "ExactAudioCopy v1.0b3"
FILE "01 Ouverture. Prologue.wav" WAVE
TRACK 01 AUDIO
INDEX 01 00:00:00
TRACK 02 AUDIO
INDEX 00 06:45:67
FILE "02 Acte premier. Introduction.wav" WAVE
INDEX 01 00:00:00
TRACK 03 AUDIO
INDEX 00 11:32:13
FILE "03 Acte premier. Ballade De La Reine Mab.wav" WAVE
INDEX 01 00:00:00
TRACK 04 AUDIO
INDEX 00 02:24:72
FILE "04 Acte premier. Recitatif & Scene.wav" WAVE
INDEX 01 00:00:00
TRACK 05 AUDIO
INDEX 00 03:29:03
FILE "05 Acte premier. Ariette.wav" WAVE
INDEX 01 00:00:00
TRACK 06 AUDIO
INDEX 00 03:53:20
FILE "06 Acte premier. Recitatif.wav" WAVE
INDEX 01 00:00:00
TRACK 07 AUDIO
INDEX 00 00:23:35
FILE "07 Acte premier. Madrigal.wav" WAVE
INDEX 01 00:00:00
TRACK 08 AUDIO
INDEX 00 04:22:47
FILE "08 Acte premier. Finale.wav" WAVE
INDEX 01 00:00:00
TRACK 09 AUDIO
INDEX 00 05:29:36
FILE "09 Acte deuxieme. Entracte & choeur.wav" WAVE
INDEX 01 00:00:00
TRACK 10 AUDIO
INDEX 00 04:02:23
FILE "10 Acte deuxieme. Cavatine.wav" WAVE
INDEX 01 00:00:00
TRACK 11 AUDIO
INDEX 00 04:17:25
FILE "11 Acte deuxieme. Scene & Choeurs.wav" WAVE
INDEX 01 00:00:00

Содержание индексной карты (.CUE) CD 2

REM GENRE Opera
REM DATE 1984
REM DISCID 500DB006
REM COMMENT "ExactAudioCopy v1.0b3"
FILE "01 Acte deuxieme. Duo.wav" WAVE
TRACK 01 AUDIO
INDEX 01 00:00:00
TRACK 02 AUDIO
INDEX 00 10:45:55
FILE "02 Acte troisieme. Entracte & Scene.wav" WAVE
INDEX 01 00:00:00
TRACK 03 AUDIO
INDEX 00 06:49:60
FILE "03 Acte troisieme. Trio & Quatuor.wav" WAVE
INDEX 01 00:00:00
TRACK 04 AUDIO
INDEX 00 05:45:55
FILE "04 Acte troisieme. Chanson.wav" WAVE
INDEX 01 00:00:00
TRACK 05 AUDIO
INDEX 00 04:15:48
FILE "05 Acte troisieme. FInale.wav" WAVE
INDEX 01 00:00:00
TRACK 06 AUDIO
INDEX 00 17:38:17
FILE "06 Acte quatrieme. Duo.wav" WAVE
INDEX 01 00:00:00

Содержание индексной карты (.CUE) CD 3

REM GENRE Opera
REM DATE 1984
REM DISCID 820C420A
REM COMMENT "ExactAudioCopy v1.0b3"
FILE "01 Acte quatrieme. Premiere tableau. Quator.wav" WAVE
TRACK 01 AUDIO
INDEX 01 00:00:00
TRACK 02 AUDIO
INDEX 00 05:26:65
FILE "02 Acte quatrieme. Premiere tableau. Scene.wav" WAVE
INDEX 01 00:00:00
TRACK 03 AUDIO
INDEX 00 05:22:27
FILE "03 Acte quatrieme. Premiere tableau. Scene & Air.wav" WAVE
INDEX 01 00:00:00
TRACK 04 AUDIO
INDEX 00 06:43:03
FILE "04 Acte quatrieme. Deuxieme tableau. Cortege nuptial.wav" WAVE
INDEX 01 00:00:00
TRACK 05 AUDIO
INDEX 00 02:54:40
FILE "05 Acte quatrieme. Deuxieme tableau. Epithalame.wav" WAVE
INDEX 01 00:00:00
TRACK 06 AUDIO
INDEX 00 03:40:59
FILE "06 Acte quatrieme. Deuxieme tableau. Finale.wav" WAVE
INDEX 01 00:00:00
TRACK 07 AUDIO
INDEX 00 05:18:65
FILE "07 Acte cinquieme. Entracte.wav" WAVE
INDEX 01 00:00:00
TRACK 08 AUDIO
INDEX 00 01:54:08
FILE "08 Acte cinquieme. Scene.wav" WAVE
INDEX 01 00:00:00
TRACK 09 AUDIO
INDEX 00 01:06:12
FILE "09 Acte cinquieme. Le sommeil de Juliette.wav" WAVE
INDEX 01 00:00:00
TRACK 10 AUDIO
INDEX 00 02:27:48
FILE "10 Acte cinquieme. Scene & Duo.wav" WAVE
INDEX 01 00:00:00

Треклист

Disc 1:
1. Prologue: Verone Vit Jadis Deux Familles Rivales...
Act I:
2. No.1. Intro: L'Heure S'envole...
3. No.2. Ballade De La Reine Mab: Mab, La Reine Des Mensonges...
4. No.2a. Recitatif & Scene: Eh Bien!...Que L'avertissement Me Vienne De Mab...
5. No.3. Ariette: Ah! Je Veux Vivre Dans Le Reve...
6. No.3a. Recitatif: Le Nom De Cette Belle Enfant?
7. No.4. Madrigal: Ange Adorable
8. No.5. Finale: Quelqu'un!
Act II:
9. No.6. Entracte & Chor: O Nuit! Sou Tes Ailes Obscures...
10. No.7. Cavatine: L'amour, L'amour! Oui, Son Ardeur A Trouble...
11. No.8. Scene & Chors: Helas: Moi, Le Hair!...
Disc 2:
1. No.9. Duo: O Nuit Divine! Je T'implore!...
Act III:
2. Scene One. No.10 Entracte & Scene: Mon Pere! Dieu Vous Garde!...
3. Scene One. No.11 Trio & Quatuor: Dieu Qui Fit L'homme A Ton Image!
4. Scene Two. No.12 Chanson: Depuis Hier Je Cherche En Vain Mon Maitre!
5. Scene Two. No.13 Finale: Ah! Ah! Voici Nos Gens!
6. Scene One. No.14 Duo: Va! Je T'ai Pardonne...
Disc 3:
Act IV:
1. Scene One. No.15 Quatuor: Ah! Le Ciel Soit Toue!...
2. Scene One. No.16 Scene: Mon Pere! Tout M'accable!
3. Scene One. No.17 Scene Air: Dieu! Quel Frisson Court Dans Mes Veines!
4. Scene Two. No.18 Cortege Nuptial
5. Scene Two. No.18 bis Epithalame: Loi Rigoureuse! Ah! Je Tremble! Malheureuse!
6. Scene Two. No.19 Finale: Ma Fille, Cede Aux Voeux...
Act V:
7. No.20. Entracte
8. No.20 bis. Scene: Eh! Bien! Ma Lettre A Romeo?
9. No.21. Le Sommeil De Juliette
10. No.22. Scene & Duo: C'est La...Salut! Tombeau Sombre Et Silencieux



Показать сообщения:    

Текущее время: 11-Дек 11:00

Часовой пояс: UTC + 3


Вы не можете начинать темы
Вы не можете отвечать на сообщения
Вы не можете редактировать свои сообщения
Вы не можете удалять свои сообщения
Вы не можете голосовать в опросах
Вы не можете прикреплять файлы к сообщениям
Вы не можете скачивать файлы